<?xml version="1.0" standalone="no"?>
<!DOCTYPE svg PUBLIC "-//W3C//DTD SVG 1.1//EN" "http://www.w3.org/Graphics/SVG/1.1/DTD/svg11.dtd" >
<svg xmlns="http://www.w3.org/2000/svg" xmlns:xlink="http://www.w3.org/1999/xlink" version="1.1">
<metadata></metadata>
<defs>
<font id="dosismedium" horiz-adv-x="1144" >
<font-face units-per-em="2048" ascent="1638" descent="-410" />
<missing-glyph horiz-adv-x="409" />
<glyph unicode="&#xfb01;" horiz-adv-x="1073" d="M123 59v1090q0 166 122 286.5t326 120.5q123 0 223.5 -39.5t100.5 -93.5q0 -27 -18.5 -61.5t-45.5 -34.5q-14 0 -43.5 20.5t-85 40t-127.5 19.5q-141 0 -211.5 -75t-70.5 -177v-184h246q25 0 39 -20.5t14 -47t-14.5 -46t-38.5 -19.5h-246v-779q0 -25 -25.5 -42t-62.5 -17 q-35 0 -58.5 16t-23.5 43zM782 61v850q0 27 23.5 43.5t58.5 16.5q37 0 62.5 -16.5t25.5 -43.5v-850q0 -25 -25.5 -43t-62.5 -18q-35 0 -58.5 18t-23.5 43z" />
<glyph unicode="&#xfb02;" horiz-adv-x="1091" d="M123 59v1090q0 186 139 296.5t330 110.5q102 0 202.5 -34.5t157.5 -100.5v-1360q0 -25 -25.5 -43t-60.5 -18t-59.5 18.5t-24.5 42.5v1287q-76 70 -196 69q-117 0 -205 -71.5t-88 -190.5v-184h246q25 0 39 -20.5t14 -47t-14.5 -46t-38.5 -19.5h-246v-779q0 -25 -25.5 -42 t-62.5 -17q-35 0 -58.5 16t-23.5 43z" />
<glyph horiz-adv-x="0" />
<glyph unicode="&#xd;" horiz-adv-x="681" />
<glyph horiz-adv-x="0" />
<glyph horiz-adv-x="0" />
<glyph unicode=" "  horiz-adv-x="409" />
<glyph unicode="&#x09;" horiz-adv-x="409" />
<glyph unicode="&#xa0;" horiz-adv-x="409" />
<glyph unicode="!" horiz-adv-x="428" d="M106 94q0 45 32 77t77 32q43 0 73.5 -32t30.5 -77q0 -43 -30.5 -74.5t-73.5 -31.5q-45 0 -77 31.5t-32 74.5zM121 1430q0 41 25.5 64.5t66.5 23.5q39 0 65.5 -24t26.5 -64q0 -158 -12 -507.5t-12 -508.5q0 -25 -22.5 -40.5t-45.5 -15.5q-29 0 -48.5 14.5t-19.5 41.5 q0 160 -12 509t-12 507z" />
<glyph unicode="&#x22;" horiz-adv-x="571" d="M72 1522q0 23 22.5 37t51 14t52 -14.5t23.5 -36.5l-20 -297q0 -23 -14.5 -38.5t-41.5 -15.5q-53 0 -53 54zM350 1522q0 23 22.5 37t51.5 14t52.5 -14.5t23.5 -36.5l-21 -297q0 -23 -14 -38.5t-41 -15.5q-53 0 -53 54z" />
<glyph unicode="#" horiz-adv-x="1247" d="M49 563q0 29 14.5 48.5t36.5 19.5h217l50 305h-187q-57 0 -57 65q0 29 14.5 47.5t34.5 18.5h219l60 354q6 39 67 39q35 0 57.5 -18.5t22.5 -52.5l-53 -322h252l57 354q6 39 68 39q35 0 58.5 -18.5t23.5 -52.5l-54 -322h189q23 0 41 -18.5t18 -47.5q0 -27 -16.5 -46 t-36.5 -19h-217l-51 -305h188q23 0 41 -19.5t18 -48.5q0 -27 -16 -45t-37 -18h-219l-61 -387q-4 -18 -26 -31.5t-44 -13.5q-35 0 -59.5 18t-24.5 51l59 363h-247l-64 -385q-4 -20 -27.5 -33.5t-40.5 -13.5q-35 0 -58 18t-23 51l55 363h-185q-57 0 -57 63zM473 631h248 l49 305h-248z" />
<glyph unicode="$" horiz-adv-x="1036" d="M72 236q0 33 23.5 63.5t51.5 30.5q16 0 45 -24.5t59 -54.5t93.5 -55.5t142.5 -29.5v545l-110 41q-39 14 -99.5 49t-90 70.5t-54 96t-24.5 136.5q0 92 32.5 162.5t89 111.5t120 62.5t136.5 27.5v62q0 16 15.5 29.5t38.5 13.5q20 0 36.5 -13.5t16.5 -29.5v-57 q123 -6 223.5 -42t100.5 -94q0 -29 -20.5 -61.5t-53.5 -32.5q-10 0 -86 36t-164 40v-467q80 -29 132 -56.5t110.5 -75.5t88 -123t29.5 -175q0 -180 -97 -284.5t-263 -127.5v-73q0 -16 -16.5 -29.5t-36.5 -13.5q-23 0 -38.5 13t-15.5 30v67q-176 2 -295.5 80t-119.5 152z M272 1120q0 -96 55.5 -144t168.5 -89v430q-224 -23 -224 -197zM586 170q205 33 205 236q0 106 -53.5 165.5t-151.5 100.5v-502z" />
<glyph unicode="%" horiz-adv-x="1566" d="M74 948v307q0 125 71.5 183.5t192.5 58.5q119 0 191.5 -58.5t72.5 -183.5v-307q0 -125 -72.5 -183t-191.5 -58q-121 0 -192.5 58t-71.5 183zM197 948q0 -133 141 -133t141 133v307q0 133 -141 133.5t-141 -133.5v-307zM342 0q0 14 6 27l768 1519q14 31 51 31 q27 0 48.5 -19.5t21.5 -48.5q0 -14 -6 -28l-766 -1510q-14 -33 -57 -32q-27 0 -46.5 18t-19.5 43zM965 236v307q0 125 71.5 183t192.5 58q119 0 191.5 -58t72.5 -183v-307q0 -125 -72.5 -183.5t-191.5 -58.5q-121 0 -192.5 58.5t-71.5 183.5zM1087 236q0 -133 141.5 -133.5 t141.5 133.5v307q0 133 -141.5 133t-141.5 -133v-307z" />
<glyph unicode="&#x26;" horiz-adv-x="1265" d="M61 420q0 141 78 246.5t195 162.5q-76 88 -118 168t-42 181q0 164 110.5 259t276.5 95q156 0 254 -73t98 -136q0 -33 -23.5 -56.5t-55.5 -23.5q-20 0 -44 23.5t-46.5 50t-69.5 50.5t-109 24q-100 0 -160.5 -60.5t-60.5 -163.5q0 -63 35 -131.5t65.5 -105.5t96.5 -109 l391 -426q59 131 63 346q2 33 18.5 47.5t57.5 14.5t57.5 -20.5t16.5 -65.5q0 -238 -107 -432l183 -195q14 -16 14 -35q0 -27 -25.5 -49t-54.5 -22q-23 0 -45 22l-156 164q-156 -190 -411 -190q-219 0 -350.5 128t-131.5 312zM236 434q0 -127 88 -214t241 -87q188 0 285 146 l-420 446q-55 -33 -91 -64.5t-69.5 -92t-33.5 -134.5z" />
<glyph unicode="'" horiz-adv-x="292" d="M72 1522q0 23 22.5 37t51 14t52 -14.5t23.5 -36.5l-20 -297q0 -23 -14.5 -38.5t-41.5 -15.5q-53 0 -53 54z" />
<glyph unicode="(" horiz-adv-x="634" d="M117 317v869q0 162 118.5 274.5t278.5 112.5q84 0 84 -76q0 -35 -16.5 -56.5t-42.5 -21.5q-113 0 -181.5 -70.5t-68.5 -162.5v-869q0 -113 73.5 -158.5t176.5 -45.5q59 0 59 -78q0 -76 -88 -76q-166 0 -279.5 93t-113.5 265z" />
<glyph unicode=")" horiz-adv-x="634" d="M37 35q0 78 59 78q102 0 176 46t74 158v869q0 92 -68.5 162.5t-181.5 70.5q-27 0 -43 21.5t-16 56.5q0 76 84 76q160 0 278.5 -112.5t118.5 -274.5v-869q0 -172 -113.5 -265t-281.5 -93q-86 0 -86 76z" />
<glyph unicode="*" horiz-adv-x="897" d="M57 1200q0 27 19.5 48.5t48.5 21.5q10 0 18 -2l250 -86l-10 256q4 59 66 59q63 0 67 -59l-10 -260l250 90q6 2 20 2q25 0 44.5 -23.5t19.5 -50.5q0 -45 -43 -57l-248 -68l162 -219q10 -14 10 -35q0 -29 -22.5 -48t-51.5 -19q-31 0 -47 24l-151 223l-152 -225 q-12 -23 -43 -22q-25 0 -50.5 18t-25.5 45q0 25 15 41l157 211l-250 74q-43 12 -43 61z" />
<glyph unicode="+" horiz-adv-x="882" d="M53 492q0 31 16.5 52t43.5 21h254v254q0 25 22.5 43.5t53 18.5t51 -18.5t20.5 -43.5v-254h254q25 0 43 -21.5t18 -52t-18 -51t-43 -20.5h-254v-256q0 -27 -19.5 -43.5t-52 -16.5t-54 16.5t-21.5 43.5v256h-254q-27 0 -43.5 19.5t-16.5 52.5z" />
<glyph unicode="," horiz-adv-x="360" d="M74 94q0 45 29.5 77t74.5 32q43 0 75 -31t32 -78q0 -37 -88 -248q-12 -29 -45 -28q-23 0 -41.5 13t-18.5 36q0 14 4 22l43 107q-65 26 -65 98z" />
<glyph unicode="-" horiz-adv-x="845" d="M96 492q0 31 16.5 52t43.5 21h532q25 0 43.5 -21.5t18.5 -52t-18.5 -51t-43.5 -20.5h-532q-60 0 -60 72z" />
<glyph unicode="." horiz-adv-x="360" d="M76 94q0 45 30.5 77t75.5 32q43 0 74 -32t31 -77q0 -43 -31 -74.5t-74 -31.5q-45 0 -75.5 31.5t-30.5 74.5z" />
<glyph unicode="/" horiz-adv-x="972" d="M39 0q0 18 6 27l768 1519q14 31 49 31q27 0 49.5 -19.5t22.5 -48.5q0 -14 -8 -28l-764 -1510q-14 -33 -58 -32q-29 0 -47 18t-18 43z" />
<glyph unicode="0" horiz-adv-x="1107" d="M113 434v617q0 231 119.5 338.5t320.5 107.5t321.5 -107.5t120.5 -338.5v-617q0 -231 -120.5 -338.5t-321.5 -107.5t-320.5 107.5t-119.5 338.5zM285 434q0 -291 268 -291q129 0 199.5 73t70.5 218v617q0 145 -70.5 217.5t-199.5 72.5q-268 0 -268 -290v-617zM473 741.5 q0 34.5 22.5 57t59.5 22.5q35 0 57.5 -22.5t22.5 -57t-22.5 -58.5t-57.5 -24q-37 0 -59.5 24t-22.5 58.5z" />
<glyph unicode="1" horiz-adv-x="507" d="M18 1178q0 43 37 71l189 224q27 27 53 26q29 0 52.5 -16.5t23.5 -44.5v-1377q0 -29 -25.5 -45t-60.5 -16t-60.5 16.5t-25.5 44.5v1180l-76 -113q-20 -23 -43 -22q-27 0 -45.5 21.5t-18.5 50.5z" />
<glyph unicode="2" horiz-adv-x="991" d="M66 61v199q0 92 70.5 181t170.5 161l199 148q100 72 171 160.5t71 181.5q0 98 -65 171.5t-185 73.5q-102 0 -167 -57t-65 -166q0 -27 -24.5 -47t-65.5 -20q-78 0 -78 100q0 154 116 252t284 98q180 0 301 -113.5t121 -285.5q0 -102 -50.5 -196.5t-125 -160t-162.5 -131.5 l-164 -116q-74 -51 -124 -113t-50 -121v-104h628q25 0 42.5 -22.5t17.5 -55.5q0 -31 -17.5 -54.5t-42.5 -23.5h-729q-27 0 -52 17t-25 44z" />
<glyph unicode="3" horiz-adv-x="1017" d="M53 336q0 47 17.5 63.5t62.5 16.5q49 0 68.5 -16.5t19.5 -51.5q0 -78 66.5 -141.5t201.5 -63.5q274 0 275 283v39q0 250 -275 250q-59 0 -59 71.5t59 71.5q119 0 178.5 53.5t59.5 192.5q0 240 -229 239q-131 0 -185.5 -58t-54.5 -138q0 -76 -82 -76q-55 0 -72.5 18.5 t-17.5 69.5t19.5 105.5t62.5 108.5t130 89t204 35q391 0 391 -362q0 -129 -45 -219.5t-121 -124.5q209 -84 209 -326v-39q0 -225 -123 -331.5t-324 -106.5q-211 0 -323.5 107.5t-112.5 240.5z" />
<glyph unicode="4" horiz-adv-x="942" d="M10 412q0 23 10 39l506 997q27 49 78 49q29 0 56.5 -19.5t27.5 -47.5q0 -14 -8 -29l-449 -893h355v344q0 29 25.5 44t60.5 15t60.5 -15t25.5 -44v-344h108q29 0 45.5 -24.5t16.5 -57.5q0 -31 -18.5 -56.5t-43.5 -25.5h-108v-283q0 -29 -25.5 -45t-60.5 -16t-60.5 16.5 t-25.5 44.5v283h-512q-29 0 -46.5 18.5t-17.5 49.5z" />
<glyph unicode="5" horiz-adv-x="993" d="M51 342q0 82 86 82t86 -70q0 -98 76 -154.5t193 -56.5q129 0 199.5 72t70.5 215v39q0 139 -70.5 210t-197.5 71h-291q-80 0 -80 67q0 20 4 45l43 574q4 61 45 61h590q27 0 41 -23.5t14 -54t-14.5 -54.5t-40.5 -24h-486l-30 -448h205q201 0 320.5 -102.5t119.5 -321.5v-39 q0 -227 -121 -334.5t-319 -107.5q-205 0 -324 103.5t-119 250.5z" />
<glyph unicode="6" horiz-adv-x="1077" d="M113 434v617q0 231 121.5 338.5t326.5 107.5t319.5 -106.5t114.5 -249.5q0 -76 -80 -76q-90 0 -90 68q0 94 -76.5 151t-191.5 57q-272 0 -272 -290v-287q98 127 299 127q412 0 411 -414v-43q0 -231 -119.5 -338.5t-320.5 -107.5t-321.5 107.5t-120.5 338.5zM285 426 q0 -291 270 -291q268 0 268 291v43q0 279 -268 279q-270 0 -270 -261v-61z" />
<glyph unicode="7" horiz-adv-x="962" d="M49 1126v310q0 23 24.5 42t53.5 19h727q27 0 52.5 -19.5t25.5 -41.5v-191q0 -35 -29 -88l-581 -1132q-14 -29 -55.5 -29t-73 23.5t-31.5 58.5q0 18 8 35l590 1112v116h-539v-215q0 -27 -25.5 -44t-60.5 -17t-60.5 17t-25.5 44z" />
<glyph unicode="8" horiz-adv-x="1046" d="M82 410v24q0 295 229 383q-186 74 -186 320q0 360 399 360q397 0 398 -360q0 -244 -185 -320q227 -90 228 -383v-24q0 -217 -120 -319.5t-320.5 -102.5t-321.5 102.5t-121 319.5zM254 426q0 -291 270 -291q129 0 199 73t70 218v33q0 143 -71 212.5t-198 69.5 q-270 0 -270 -282v-33zM293 1120q0 -231 231.5 -231t231.5 231q0 229 -231.5 229t-231.5 -229z" />
<glyph unicode="9" horiz-adv-x="1077" d="M82 344q0 76 82 76q90 0 90 -68q0 -94 77 -151.5t189 -57.5q272 0 273 291v287q-96 -127 -299 -127q-412 0 -412 414v43q0 231 120 338.5t320.5 107.5t321.5 -107.5t121 -338.5v-617q0 -231 -122 -338.5t-327 -107.5t-319.5 106.5t-114.5 249.5zM254 1016 q0 -279 270 -279q268 0 269 260v62q0 291 -271 291q-268 0 -268 -291v-43z" />
<glyph unicode=":" horiz-adv-x="428" d="M109 94q0 45 30.5 77t75.5 32q43 0 73.5 -32t30.5 -77q0 -43 -30.5 -74.5t-73.5 -31.5q-45 0 -75.5 31.5t-30.5 74.5zM109 756q0 45 30.5 76.5t75.5 31.5q43 0 73.5 -31.5t30.5 -76.5q0 -43 -30.5 -75t-73.5 -32q-45 0 -75.5 32t-30.5 75z" />
<glyph unicode=";" horiz-adv-x="440" d="M113 94q0 45 29.5 77t74.5 32q43 0 75 -31t32 -78q0 -37 -88 -248q-12 -29 -46 -28q-23 0 -41 13t-18 36q0 14 4 22l43 107q-65 26 -65 98zM119 756q0 45 30.5 76.5t75.5 31.5q43 0 74 -31.5t31 -76.5q0 -43 -31 -75t-74 -32q-45 0 -75.5 32t-30.5 75z" />
<glyph unicode="&#x3c;" horiz-adv-x="825" d="M45 567q0 43 37 70l547 358q10 8 26 9q29 0 54.5 -25t25.5 -57q0 -35 -26 -50l-461 -305l461 -303q27 -18 26.5 -51t-26 -56.5t-54.5 -23.5q-16 0 -26 8l-547 359q-37 24 -37 67z" />
<glyph unicode="=" horiz-adv-x="897" d="M129 328q0 31 16.5 52t42.5 21h521q25 0 43 -21.5t18 -51.5q0 -33 -18.5 -53.5t-42.5 -20.5h-521q-59 0 -59 74zM129 743q0 31 16.5 52.5t42.5 21.5h521q25 0 43 -21.5t18 -52.5q0 -33 -18.5 -53t-42.5 -20h-521q-59 -1 -59 73z" />
<glyph unicode="&#x3e;" horiz-adv-x="825" d="M90 213q0 33 27 51l461 303l-461 305q-27 14 -27 50q0 33 25.5 57.5t54.5 24.5q16 0 27 -9l546 -358q37 -27 37 -70t-37 -67l-546 -359q-10 -8 -27 -8q-29 0 -54.5 23.5t-25.5 56.5z" />
<glyph unicode="?" horiz-adv-x="835" d="M45 1337q0 61 96.5 121t235.5 60q186 0 291.5 -101.5t105.5 -257.5q0 -84 -33.5 -162.5t-68.5 -118.5t-94.5 -96.5t-69.5 -68.5q-51 -51 -64.5 -112.5t-13.5 -186.5q0 -55 -70 -56q-66 0 -65 76q0 248 98 346q14 14 54 49t66 62t54.5 65.5t44 86t15.5 102.5 q0 113 -67.5 175t-190.5 62q-63 0 -109.5 -17t-66 -38.5t-41 -39t-41.5 -17.5q-25 0 -45.5 18t-20.5 49zM254 94q0 45 31.5 77t74.5 32q45 0 76 -32t31 -77q0 -43 -30.5 -74.5t-76.5 -31.5q-43 0 -74.5 31.5t-31.5 74.5z" />
<glyph unicode="@" horiz-adv-x="1478" d="M100 438q0 315 165 513t495 198q309 0 477 -174t168 -492q0 -186 -64.5 -308t-199.5 -122q-78 0 -134.5 40t-68.5 97q-57 -61 -113.5 -90.5t-138.5 -29.5q-113 0 -185.5 55t-72.5 172q0 133 103.5 185.5t302.5 52.5h81v36q0 164 -192 164q-76 0 -133.5 -25.5t-61.5 -25.5 q-20 0 -35.5 24.5t-15.5 45.5q0 45 85 76.5t183 31.5q137 0 220.5 -68.5t83.5 -195.5v-342q6 -47 34.5 -73.5t67.5 -26.5q133 0 133 307q0 276 -131 423.5t-395 147.5q-147 0 -255 -48t-167.5 -133t-87 -187.5t-27.5 -225.5q0 -115 24.5 -210t77 -176t147.5 -126t224 -45 q104 0 192.5 31t92.5 31q20 0 34.5 -18.5t14.5 -35.5q0 -47 -115.5 -82.5t-236.5 -35.5q-115 0 -216.5 41t-183 119.5t-129 208.5t-47.5 296zM571 297q0 -123 138 -123q90 0 150.5 53.5t60.5 114.5v100h-74q-135 0 -205 -30.5t-70 -114.5z" />
<glyph unicode="A" horiz-adv-x="1126" d="M35 72q0 4 4 16l418 1362q18 59 106 59t107 -59l417 -1362q0 -4 1.5 -8t1.5 -6q0 -29 -34 -51.5t-73 -22.5q-49 0 -61 39l-91 305h-538l-90 -305q-12 -39 -64 -39q-37 0 -70.5 20.5t-33.5 51.5zM332 485h459l-228 770z" />
<glyph unicode="B" horiz-adv-x="1116" d="M145 59v1377q0 29 24 45t54 16h352q193 0 304.5 -75.5t111.5 -274.5q0 -127 -46 -214t-128 -122q104 -41 157.5 -121t53.5 -227v-37q0 -221 -110.5 -323.5t-294.5 -102.5h-400q-35 0 -56.5 17t-21.5 42zM317 156h277q262 0 262 280v35q0 141 -66.5 204.5t-195.5 63.5 h-277v-583zM317 883h256q127 0 186.5 57t59.5 182q0 219 -252 219h-250v-458z" />
<glyph unicode="C" horiz-adv-x="1087" d="M131 434v617q0 229 122 337.5t318 108.5q201 0 322 -101.5t121 -254.5q0 -55 -20.5 -74.5t-65.5 -19.5q-82 0 -86 59q-12 235 -265 235h-2q-272 0 -272 -290v-617q0 -291 279 -291q80 0 133 22.5t78.5 65.5t34 74t14.5 82q6 59 86 59q45 0 65.5 -20t20.5 -76 q0 -156 -122 -259t-323 -103q-195 0 -316.5 108.5t-121.5 337.5z" />
<glyph unicode="D" horiz-adv-x="1159" d="M145 59v1379q0 25 21.5 42t56.5 17h363q201 0 321.5 -107.5t120.5 -338.5v-605q0 -231 -121 -338.5t-321 -107.5h-363q-35 0 -56.5 17t-21.5 42zM317 156h269q129 0 199.5 72.5t70.5 217.5v605q0 145 -70.5 217.5t-199.5 72.5h-269v-1185z" />
<glyph unicode="E" horiz-adv-x="1052" d="M145 61v1375q0 29 24 45t54 16h729q29 0 44.5 -22.5t15.5 -53.5q0 -33 -16.5 -56.5t-43.5 -23.5h-635v-520h320q27 0 43 -21.5t16 -51.5q0 -27 -15 -48.5t-44 -21.5h-320v-522h635q27 0 43.5 -23.5t16.5 -56.5q0 -31 -15.5 -53.5t-44.5 -22.5h-729q-31 0 -54.5 16 t-23.5 45z" />
<glyph unicode="F" horiz-adv-x="1017" d="M145 59v1377q0 29 24 45t54 16h721q29 0 44.5 -22.5t15.5 -53.5q0 -35 -15.5 -57.5t-44.5 -22.5h-627v-520h320q29 0 44 -21.5t15 -51.5q0 -27 -15 -48.5t-44 -21.5h-320v-619q0 -29 -25.5 -44t-60 -15t-60.5 15t-26 44z" />
<glyph unicode="G" horiz-adv-x="1122" d="M131 434v617q0 231 120 338.5t316 107.5q201 0 324 -101.5t123 -265.5q0 -47 -21.5 -65t-64.5 -18q-84 0 -86 59q-27 235 -269 235h-2q-268 0 -268 -290v-617q0 -291 268 -291q129 0 200 73t71 218v209h-244q-29 0 -44 21.5t-15 50t16 50t43 21.5h356q29 0 44.5 -18 t15.5 -45v-289q0 -231 -121 -338.5t-321.5 -107.5t-320.5 107.5t-120 338.5z" />
<glyph unicode="H" horiz-adv-x="1189" d="M145 61v1377q0 29 26 44t60.5 15t60 -15.5t25.5 -43.5v-590h555v590q0 29 26 44t60.5 15t60 -15.5t25.5 -43.5v-1377q0 -29 -25.5 -45t-60 -16t-60.5 16.5t-26 44.5v644h-555v-644q0 -29 -25.5 -45t-60 -16t-60.5 16t-26 45z" />
<glyph unicode="I" horiz-adv-x="462" d="M145 61v1377q0 29 26 44t60.5 15t60 -15.5t25.5 -43.5v-1377q0 -29 -25.5 -45t-60 -16t-60.5 16t-26 45z" />
<glyph unicode="J" horiz-adv-x="1062" d="M41 362q0 47 21.5 65.5t64.5 18.5q86 0 86 -59q0 -109 70.5 -176.5t197.5 -67.5q270 0 271 291v907h-267q-29 0 -44 22.5t-15 57.5q0 76 59 76h361q31 0 54.5 -16.5t23.5 -44.5v-1002q0 -231 -120 -338.5t-317 -107.5q-201 0 -323.5 103t-122.5 271z" />
<glyph unicode="K" horiz-adv-x="1083" d="M145 61v1377q0 29 26 44t60.5 15t60 -15.5t25.5 -43.5v-678l549 713q18 25 51 24.5t66 -29t33 -59.5q0 -20 -15 -37l-417 -522l487 -737q10 -16 10 -31q0 -33 -31.5 -59.5t-68.5 -26.5q-41 0 -63 35l-449 674l-152 -191v-453q0 -29 -25.5 -45t-60 -16t-60.5 16t-26 45z " />
<glyph unicode="L" horiz-adv-x="958" d="M145 61v1377q0 29 26 44t60.5 15t60 -15.5t25.5 -43.5v-1282h560q27 0 41 -23.5t14 -54.5t-14.5 -54.5t-40.5 -23.5h-654q-31 0 -54.5 16t-23.5 45z" />
<glyph unicode="M" horiz-adv-x="1382" d="M145 61v1352q0 84 86 84q82 0 138 -108l321 -617l324 617q58 108 136 108h1q86 0 86 -84v-1352q0 -29 -25.5 -45t-60.5 -16t-60.5 16.5t-25.5 44.5v1076l-309 -582q-25 -47 -68 -47q-39 0 -63 47l-308 590v-1084q0 -29 -25.5 -45t-60 -16t-60.5 16t-26 45z" />
<glyph unicode="N" horiz-adv-x="1189" d="M145 61v1377q0 59 86 59q43 0 73 -25.5t58 -82.5l510 -998v1047q0 29 26 44t60.5 15t60 -15.5t25.5 -43.5v-1377q0 -29 -25.5 -45t-60.5 -16q-66 0 -108 78l-533 1030v-1047q0 -29 -25.5 -45t-60 -16t-60.5 16t-26 45z" />
<glyph unicode="O" d="M131 434v617q0 231 120 338.5t320.5 107.5t321.5 -107.5t121 -338.5v-617q0 -231 -121 -338.5t-321.5 -107.5t-320.5 107.5t-120 338.5zM303 434q0 -291 268 -291q129 0 200 73t71 218v617q0 145 -71 217.5t-200 72.5q-268 0 -268 -290v-617z" />
<glyph unicode="P" horiz-adv-x="1095" d="M145 61v1377q0 25 19.5 42t50.5 17h387q197 0 315.5 -106.5t118.5 -335.5v-19q0 -229 -120.5 -336.5t-321.5 -107.5h-277v-531q0 -29 -25.5 -45t-60 -16t-60.5 16t-26 45zM317 735h277q129 0 199.5 73t70.5 218v25q0 145 -70.5 217.5t-199.5 72.5h-277v-606z" />
<glyph unicode="Q" d="M131 434v617q0 231 120 338.5t320.5 107.5t321.5 -107.5t121 -338.5v-617q0 -213 -102.5 -321.5t-276.5 -120.5v-154q0 -29 -18.5 -45t-43 -16t-43 16.5t-18.5 44.5v154q-176 12 -278.5 119.5t-102.5 322.5zM303 434q0 -250 209 -282v139q0 29 18.5 44t43 15t43 -15.5 t18.5 -43.5v-137q207 29 207 280v617q0 145 -71 217.5t-200 72.5q-268 0 -268 -290v-617z" />
<glyph unicode="R" horiz-adv-x="1112" d="M145 61v1377q0 25 17.5 41t44.5 18h375q205 0 329.5 -95t124.5 -315q0 -338 -305 -399l303 -575q8 -14 8 -29q0 -33 -32.5 -60.5t-69.5 -27.5q-43 0 -78 67l-309 601h-236v-603q0 -29 -25.5 -45t-60 -16t-60.5 16t-26 45zM317 807h265q282 0 282 266q0 268 -282 268h-265 v-534z" />
<glyph unicode="S" horiz-adv-x="1028" d="M68 215q0 33 23.5 63.5t51.5 30.5q18 0 47 -25.5t60 -57t96.5 -57.5t147.5 -26q133 0 208.5 64.5t75.5 189.5q0 113 -69.5 183.5t-168 107.5t-197.5 79t-169 129t-70 224q0 106 41 185t110 119t142.5 58.5t157.5 18.5q127 0 242.5 -35.5t115.5 -99.5q0 -29 -20.5 -61.5 t-52.5 -32.5q-8 0 -94.5 39t-190.5 39q-125 0 -202 -51.5t-77 -161.5q0 -94 70 -152.5t169 -93.5t197.5 -80t168 -144.5t69.5 -252.5q0 -213 -122.5 -321.5t-325.5 -108.5q-182 0 -308 77.5t-126 153.5z" />
<glyph unicode="T" horiz-adv-x="1011" d="M27 1419q0 31 16 54.5t45 23.5h834q29 0 45 -23.5t16 -54.5q0 -33 -16.5 -57.5t-44.5 -24.5h-330v-1276q0 -29 -25.5 -45t-60.5 -16t-60.5 16.5t-25.5 44.5v1276h-332q-29 0 -45 23.5t-16 58.5z" />
<glyph unicode="U" horiz-adv-x="1173" d="M139 434v1004q0 29 25.5 44t60.5 15t60.5 -15.5t25.5 -43.5v-1004q0 -291 275 -291q133 0 204.5 73t71.5 218v1004q0 59 86 59q35 0 60.5 -15.5t25.5 -43.5v-1004q0 -231 -123 -338.5t-325.5 -107.5t-324.5 107.5t-122 338.5z" />
<glyph unicode="V" horiz-adv-x="1124" d="M35 1425q0 31 33.5 51.5t70.5 20.5q51 0 64 -39l360 -1216l359 1216q14 39 61 39q39 0 73 -22.5t34 -51.5q0 -2 -1.5 -6t-1.5 -8l-415 -1362q-23 -59 -109 -59t-104 59l-420 1362q-4 12 -4 16z" />
<glyph unicode="W" horiz-adv-x="1665" d="M35 1427q0 29 33.5 49.5t70.5 20.5q51 0 64 -39l346 -1216l194 749q14 53 91 53q72 0 86 -53l196 -749l344 1216q12 39 66 39q37 0 69.5 -20.5t32.5 -49.5q0 -12 -2 -18l-403 -1362q-18 -59 -107 -59q-92 0 -106 59l-176 676l-179 -676q-16 -59 -104 -59t-107 59 l-405 1362q-4 12 -4 18z" />
<glyph unicode="X" horiz-adv-x="1034" d="M41 80q0 18 12 37l353 633l-345 628q-14 23 -14 45q0 35 32 56.5t73 21.5q43 0 75 -65l289 -545l291 545q33 65 75 65h1q41 0 72.5 -21.5t31.5 -56.5q0 -23 -14 -45l-346 -628l354 -633q12 -18 12 -37q0 -33 -35.5 -58.5t-72.5 -25.5q-35 0 -66 57l-303 559l-301 -559 q-31 -57 -65 -57q-37 0 -73 25.5t-36 58.5z" />
<glyph unicode="Y" horiz-adv-x="1116" d="M35 1425q0 31 33.5 51.5t68.5 20.5q37 0 62 -45l360 -702l359 702q25 45 61.5 45t69 -20.5t32.5 -51.5q0 -16 -8 -34l-424 -791q-4 -6 -4 -20v-519q0 -29 -25.5 -45t-60.5 -16t-60.5 16.5t-25.5 44.5v519q0 10 -6 20l-424 791q-8 18 -8 34z" />
<glyph unicode="Z" horiz-adv-x="1013" d="M43 55q0 27 16 60l662 1226h-590q-29 0 -44 22.5t-15 55.5t15 55.5t44 22.5h754q59 0 59 -51q0 -29 -20 -66l-660 -1224h647q27 0 44.5 -23.5t17.5 -54.5t-17.5 -54.5t-44.5 -23.5h-809q-59 0 -59 55z" />
<glyph unicode="[" horiz-adv-x="643" d="M133 16v1497q0 27 23.5 43.5t54.5 16.5h336q27 0 43 -22.5t16 -53.5q0 -33 -16.5 -55.5t-42.5 -22.5h-242v-1308h242q27 0 43 -22.5t16 -55.5q0 -31 -16.5 -53.5t-42.5 -22.5h-336q-31 0 -54.5 16t-23.5 43z" />
<glyph unicode="\" horiz-adv-x="718" d="M43 1481q0 27 20.5 45t49.5 18q41 0 53 -35l506 -1429q4 -6 4 -19q0 -25 -20.5 -43t-47.5 -18q-45 0 -57 41l-504 1417q-4 9 -4 23z" />
<glyph unicode="]" horiz-adv-x="643" d="M37 33q0 33 16.5 55.5t42.5 22.5h242v1308h-242q-27 0 -43 22.5t-16 55.5q0 31 16.5 53.5t42.5 22.5h336q31 0 54.5 -16.5t23.5 -43.5v-1497q0 -27 -23.5 -43t-54.5 -16h-336q-27 0 -43 22.5t-16 53.5z" />
<glyph unicode="^" horiz-adv-x="559" d="M0 1264q0 39 31 53l213 115q20 10 35 10q18 0 34 -10l213 -113q33 -18 33 -57q0 -23 -13.5 -40.5t-33.5 -17.5q-4 0 -12 2q-4 4 -8 4l-213 115l-213 -115q-8 -6 -19 -6q-18 0 -32.5 18.5t-14.5 41.5z" />
<glyph unicode="_" horiz-adv-x="675" d="M-49 -74q0 31 16.5 52.5t42.5 21.5h656q25 0 43 -21.5t18 -52t-18.5 -51t-42.5 -20.5h-656q-59 -1 -59 71z" />
<glyph unicode="`" horiz-adv-x="344" d="M0 1372q0 27 16.5 48.5t40.5 21.5q8 0 21 -4l239 -127q27 -12 27 -45q0 -27 -18.5 -48.5t-42.5 -21.5q-6 0 -23 8l-231 119q-29 14 -29 49z" />
<glyph unicode="a" horiz-adv-x="917" d="M57 256q0 160 123 222.5t357 62.5h98v43q0 102 -56.5 178t-168.5 76q-86 0 -151.5 -30t-72.5 -30q-29 0 -46 28t-17 58q0 47 93 83t198 36q201 0 296 -113.5t95 -283.5v-525q0 -27 -23.5 -44t-60.5 -17q-33 0 -55.5 17.5t-22.5 43.5v82q-138 -159 -307 -159h-2 q-123 0 -200 69.5t-77 202.5zM229 274q0 -76 43 -114.5t115 -38.5q86 0 167 68.5t81 140.5v106h-72q-59 0 -102 -3t-89 -12t-76 -26.5t-48.5 -47.5t-18.5 -73z" />
<glyph unicode="b" horiz-adv-x="1011" d="M123 61v1436q0 27 23.5 43t60.5 16t61.5 -16t24.5 -43v-670q37 66 106.5 111t161.5 45q150 0 258.5 -115.5t108.5 -277.5v-209q0 -156 -108.5 -276.5t-252.5 -120.5q-92 0 -170 47t-112 112v-82q0 -25 -23.5 -43t-54.5 -18q-35 0 -59.5 18t-24.5 43zM293 326 q0 -51 71.5 -120t161.5 -69q92 0 162 75t70 169v209q0 92 -70 165.5t-164 73.5q-92 0 -161.5 -66.5t-69.5 -172.5v-264z" />
<glyph unicode="c" horiz-adv-x="854" d="M86 381v205q0 176 103.5 286.5t304.5 110.5q127 0 214 -45t87 -96q0 -29 -21.5 -56.5t-50.5 -27.5q-8 0 -70.5 35.5t-146.5 35.5q-123 0 -186.5 -63.5t-63.5 -179.5v-205q0 -244 252 -244q86 0 149.5 37t73.5 37q33 0 54.5 -26.5t21.5 -55.5q0 -51 -90 -98t-221 -47 q-203 0 -306.5 109.5t-103.5 287.5z" />
<glyph unicode="d" horiz-adv-x="1011" d="M84 381v209q0 162 108.5 277.5t258.5 115.5q92 0 161.5 -45t106.5 -111v670q0 27 24.5 43t61.5 16t60.5 -16t23.5 -43v-1436q0 -25 -24.5 -43t-59.5 -18q-31 0 -54.5 18.5t-23.5 42.5v82q-35 -66 -112.5 -112.5t-170.5 -46.5q-143 0 -251.5 120.5t-108.5 276.5zM254 381 q0 -94 69.5 -169t161.5 -75q90 0 162 68.5t72 120.5v264q0 106 -69.5 172.5t-162.5 66.5q-94 0 -163.5 -73.5t-69.5 -165.5v-209z" />
<glyph unicode="e" horiz-adv-x="952" d="M84 381v215q0 158 120 272.5t288 114.5q160 0 276.5 -107.5t116.5 -269.5q0 -59 -14.5 -95t-44 -51.5t-55.5 -19.5t-69 -4h-448v-61q0 -113 81 -180.5t210 -67.5q68 0 118 20.5t80.5 40t49.5 19.5q29 0 49 -25.5t20 -52.5q0 -47 -93 -96t-230 -49q-201 0 -328 109.5 t-127 287.5zM254 551h379q53 0 71.5 13.5t18.5 51.5q0 92 -67.5 162t-166.5 70q-96 0 -165.5 -64.5t-69.5 -158.5v-74z" />
<glyph unicode="f" horiz-adv-x="645" d="M123 59v1115q0 160 107.5 271t254.5 111h72q33 0 51.5 -22.5t18.5 -53t-18.5 -52t-51.5 -21.5h-43q-94 0 -156.5 -63.5t-64.5 -155.5v-217h280q25 0 39.5 -20.5t14.5 -47t-14.5 -46t-39.5 -19.5h-280v-779q0 -25 -25.5 -42t-62.5 -17q-35 0 -58.5 16t-23.5 43z" />
<glyph unicode="g" horiz-adv-x="935" d="M45 -193q0 150 166 224q-104 39 -105 137q0 94 103 151q-117 94 -117 259v67q0 150 100.5 244t264.5 94q139 0 239 -80q61 133 140 133q33 0 53 -19.5t20 -43.5q0 -31 -35 -47q-70 -18 -110 -86q63 -76 63 -195v-67q0 -147 -104.5 -243.5t-265.5 -96.5q-84 0 -152 30 q-51 -31 -51 -69.5t47 -60t116.5 -27t151.5 -19.5t152 -36.5t117 -80t47 -145.5q0 -145 -116 -222t-300 -77t-304 74.5t-120 201.5zM207 -174q0 -80 70.5 -128t189.5 -48q115 0 183.5 48t68.5 128q0 33 -11.5 57.5t-36 41t-49 27.5t-63.5 18t-64.5 10.5t-67.5 7.5t-58 6 q-162 -53 -162 -168zM258 580q0 -98 54.5 -162t148.5 -64q90 0 145.5 62.5t55.5 161.5v67q0 94 -55.5 157.5t-147.5 63.5q-94 0 -147.5 -62.5t-53.5 -158.5v-65z" />
<glyph unicode="h" horiz-adv-x="1032" d="M123 61v1436q0 27 23.5 43t60.5 16t61.5 -16t24.5 -43v-670q35 66 103.5 111t162.5 45q145 0 253 -115.5t108 -277.5v-529q0 -29 -26 -45t-60 -16q-33 0 -58.5 16.5t-25.5 44.5v529q0 92 -70 165.5t-164 73.5q-88 0 -155.5 -66.5t-67.5 -172.5v-529q0 -23 -25.5 -42 t-60.5 -19t-59.5 18t-24.5 43z" />
<glyph unicode="i" horiz-adv-x="411" d="M98 1335q0 39 31 68t76 29q43 0 73.5 -29t30.5 -68t-30.5 -68.5t-73.5 -29.5t-75 29.5t-32 68.5zM121 61v850q0 27 24.5 43.5t59.5 16.5q37 0 61.5 -16.5t24.5 -43.5v-850q0 -23 -25.5 -42t-60.5 -19t-59.5 18t-24.5 43z" />
<glyph unicode="j" horiz-adv-x="415" d="M-76 -395q0 33 20.5 54.5t49.5 21.5q80 0 104.5 59t24.5 178v993q0 27 23.5 43.5t60.5 16.5t61.5 -16.5t24.5 -43.5v-993q0 -178 -69.5 -282.5t-211.5 -104.5q-88 0 -88 74zM100 1335q0 39 31 68t76 29q43 0 73.5 -29t30.5 -68t-30.5 -68.5t-73.5 -29.5t-75 29.5 t-32 68.5z" />
<glyph unicode="k" horiz-adv-x="956" d="M123 61v1436q0 27 23.5 43t60.5 16t61.5 -16t24.5 -43v-958l467 422q18 14 37 14q31 0 58.5 -24.5t27.5 -55.5q0 -25 -19 -41l-284 -252l340 -493q10 -16 10 -31q0 -31 -31 -58.5t-63 -27.5q-29 0 -48 26l-325 478l-170 -152v-283q0 -23 -25.5 -42t-60.5 -19t-59.5 18 t-24.5 43z" />
<glyph unicode="l" horiz-adv-x="448" d="M139 61v1436q0 27 23.5 43t60.5 16t61.5 -16t24.5 -43v-1436q0 -23 -25.5 -42t-60.5 -19t-59.5 18t-24.5 43z" />
<glyph unicode="m" horiz-adv-x="1609" d="M121 61v850q0 27 23.5 43.5t60.5 16.5q33 0 55.5 -16.5t22.5 -43.5v-84q37 68 107.5 112t164.5 44t169 -56.5t112 -148.5q51 100 135 152.5t176 52.5q143 0 246.5 -106.5t103.5 -286.5v-529q0 -23 -25.5 -42t-60.5 -19q-33 0 -58.5 19.5t-25.5 41.5v529q0 111 -64.5 175 t-150.5 64t-152.5 -65.5t-66.5 -167.5v-537q0 -29 -25.5 -44t-60.5 -15q-33 0 -58.5 15.5t-25.5 43.5v535q0 102 -62.5 168.5t-150.5 66.5t-153.5 -65.5t-65.5 -173.5v-529q0 -23 -25.5 -42t-60.5 -19t-59.5 18t-24.5 43z" />
<glyph unicode="n" horiz-adv-x="1030" d="M121 61v850q0 27 23.5 43.5t60.5 16.5q31 0 54.5 -17.5t23.5 -42.5v-84q33 66 105.5 111t168.5 45q145 0 253 -115.5t108 -277.5v-529q0 -29 -26 -45t-61 -16q-33 0 -58 16.5t-25 44.5v529q0 92 -70 165.5t-164 73.5q-88 0 -155.5 -66.5t-67.5 -172.5v-529 q0 -23 -26.5 -42t-59.5 -19q-35 0 -59.5 18t-24.5 43z" />
<glyph unicode="o" horiz-adv-x="976" d="M84 381v209q0 158 120 275.5t283.5 117.5t284.5 -116.5t121 -276.5v-209q0 -156 -122 -276.5t-283.5 -120.5t-282.5 119.5t-121 277.5zM254 381q0 -96 69.5 -170t163.5 -74q96 0 166 75t70 169v209q0 92 -69.5 165.5t-166 73.5t-165 -73.5t-68.5 -165.5v-209z" />
<glyph unicode="p" horiz-adv-x="1011" d="M123 -408v1319q0 27 23.5 43.5t58.5 16.5t57.5 -16.5t22.5 -43.5v-84q37 66 108.5 111t165.5 45q154 0 261.5 -115.5t107.5 -277.5v-209q0 -156 -108.5 -276.5t-252.5 -120.5q-90 0 -164.5 46t-109.5 113v-551q0 -23 -25.5 -42t-60.5 -19t-59.5 18t-24.5 43zM293 326 q0 -51 70.5 -120t160.5 -69q92 0 163 75t71 169v209q0 92 -71 165.5t-167 73.5q-90 0 -158.5 -66.5t-68.5 -172.5v-264z" />
<glyph unicode="q" horiz-adv-x="1011" d="M84 381v209q0 162 107.5 277.5t261.5 115.5q94 0 165.5 -45t108.5 -111v84q0 27 22.5 43.5t57.5 16.5t58.5 -16.5t23.5 -43.5v-1319q0 -25 -24.5 -43t-59.5 -18t-60.5 19.5t-25.5 41.5v551q-35 -68 -109.5 -113.5t-165.5 -45.5q-143 0 -251.5 120.5t-108.5 276.5z M254 381q0 -94 70.5 -169t162.5 -75q90 0 161 68.5t71 120.5v264q0 106 -68.5 172.5t-158.5 66.5q-96 0 -167 -73.5t-71 -165.5v-209z" />
<glyph unicode="r" horiz-adv-x="704" d="M121 61v850q0 27 23.5 43.5t60.5 16.5q33 0 55.5 -16.5t22.5 -43.5v-96q37 70 108.5 119t159.5 49h70q27 0 46 -23.5t19 -54.5t-19.5 -53.5t-45.5 -22.5h-70q-104 0 -182 -83.5t-78 -217.5v-467q0 -23 -25.5 -42t-60.5 -19t-59.5 18t-24.5 43z" />
<glyph unicode="s" horiz-adv-x="802" d="M61 139q0 27 17.5 52.5t42.5 25.5q16 0 47 -24.5t88 -48t135 -23.5q102 0 148.5 37t46.5 92q0 68 -51.5 107.5t-125 60t-147.5 45t-125 82t-51 151.5q0 117 83 202t253 85q109 0 199 -34t90 -77q0 -25 -19.5 -55.5t-48.5 -30.5q-8 0 -78.5 30t-140.5 30q-94 0 -140 -44 t-46 -100q0 -57 51 -89.5t125.5 -51t148.5 -45.5t125 -91.5t51 -166.5q0 -127 -90 -200.5t-252 -73.5q-139 0 -237.5 50t-98.5 105z" />
<glyph unicode="t" horiz-adv-x="634" d="M117 309v1055q0 25 26.5 42t57.5 17q33 0 59.5 -17t26.5 -42v-393h258q23 0 37 -20.5t14 -47t-14.5 -46t-36.5 -19.5h-258v-529q0 -88 37.5 -123.5t132.5 -35.5h63q35 0 54.5 -22t19.5 -52.5t-20.5 -53t-53.5 -22.5h-63q-340 0 -340 309z" />
<glyph unicode="u" horiz-adv-x="1034" d="M113 377v532q0 25 25.5 43.5t60.5 18.5q33 0 58.5 -19.5t25.5 -42.5v-532q0 -92 69.5 -166t165.5 -74q94 0 164 73t70 167v534q0 23 25.5 41.5t60.5 18.5q37 0 60.5 -17.5t23.5 -42.5v-534q0 -158 -120 -275.5t-284 -117.5q-166 0 -285.5 117.5t-119.5 275.5z" />
<glyph unicode="v" horiz-adv-x="894" d="M25 901q0 29 35.5 51.5t72.5 22.5q43 0 55 -33l261 -696l256 688q16 41 55 41q33 0 71.5 -22.5t38.5 -51.5q0 -16 -8 -33l-336 -850q-16 -36 -74 -36h-3q-63 0 -80 36l-336 850q-8 25 -8 33z" />
<glyph unicode="w" horiz-adv-x="1382" d="M29 901q0 31 33.5 52.5t70.5 21.5q43 0 55 -33l248 -688l193 620q14 41 63 41q51 0 66 -41l188 -626l250 694q10 33 53 33q37 0 72 -21.5t35 -52.5q0 -16 -8 -33l-320 -850q-14 -36 -64 -36h-3q-55 0 -70 36l-199 603l-194 -596q-14 -43 -74 -43q-53 0 -70 43l-317 843 q-8 25 -8 33z" />
<glyph unicode="x" horiz-adv-x="872" d="M49 68q0 18 10 34l265 390l-254 372q-12 16 -13 33q0 31 37 58.5t72 27.5q29 0 45 -25l225 -352l230 352q14 25 45 25q33 0 69.5 -28.5t36.5 -57.5q0 -16 -10 -33l-258 -372l266 -390q10 -14 10 -34q0 -27 -34.5 -55.5t-69.5 -28.5q-33 0 -47 24l-238 363l-235 -363 q-16 -25 -47 -24.5t-68 28t-37 56.5z" />
<glyph unicode="y" horiz-adv-x="894" d="M25 901q0 33 36.5 57.5t73.5 24.5q43 0 55 -35l271 -712l244 712q14 35 53 35q35 0 72.5 -24.5t37.5 -59.5q0 -10 -6 -20l-311 -834l-39 -102q-10 -29 -41 -98.5t-51.5 -100.5t-57 -81t-71.5 -72.5t-83 -41t-102 -18.5q-79 0 -79 74q0 76 49 76q92 0 179 103t118 265 l-340 830q-8 12 -8 22z" />
<glyph unicode="z" horiz-adv-x="841" d="M47 63q0 33 27 68l473 694h-424q-23 0 -40 21.5t-17 50.5q0 31 16 52.5t41 21.5h586q25 0 43 -18.5t18 -47.5q0 -35 -25 -65l-475 -695h469q23 0 40.5 -21.5t17.5 -52t-16.5 -51t-41.5 -20.5h-628q-31 0 -47.5 19t-16.5 44z" />
<glyph unicode="{" horiz-adv-x="665" d="M57 788.5q0 32.5 19.5 48t42 18.5t42 13.5t19.5 34.5q0 16 -19.5 154.5t-19.5 173.5q0 135 120 238.5t276 103.5q47 0 69.5 -22.5t22.5 -53.5q0 -29 -16.5 -51.5t-43.5 -22.5q-100 0 -178 -61.5t-78 -151.5q0 -31 19.5 -167t19.5 -156q0 -35 -25.5 -64.5t-47.5 -36.5 q23 -6 48 -33.5t25 -64.5q0 -23 -19.5 -193.5t-19.5 -203.5q0 -94 84 -138t172 -44q31 0 45.5 -24t14.5 -50q0 -76 -94 -76q-160 0 -277 90t-117 227q0 39 19.5 209t19.5 189q0 25 -19.5 35t-42 12t-42 18.5t-19.5 49z" />
<glyph unicode="|" horiz-adv-x="436" d="M133 16v1497q0 27 24.5 43.5t61.5 16.5q35 0 60.5 -17.5t25.5 -42.5v-1497q0 -23 -26.5 -41t-59.5 -18q-37 0 -61.5 17t-24.5 42z" />
<glyph unicode="}" horiz-adv-x="665" d="M37 35q0 74 59 74q88 0 172 44t84 138q0 33 -19.5 204t-19.5 193q0 37 24.5 64.5t49.5 33.5q-23 6 -48.5 36t-25.5 65q0 20 19.5 156.5t19.5 166.5q0 90 -78.5 151.5t-177.5 61.5q-27 0 -43 22.5t-16 51.5q0 31 22.5 53.5t69.5 22.5q156 0 275.5 -103.5t119.5 -238.5 q0 -35 -19.5 -173t-19.5 -155q0 -25 19.5 -35t42 -13t42 -18.5t19.5 -48t-19.5 -49t-42 -18.5t-42 -12.5t-19.5 -34.5q0 -18 19.5 -188.5t19.5 -209.5q0 -137 -116.5 -227t-276.5 -90q-94 0 -94 76z" />
<glyph unicode="~" horiz-adv-x="823" d="M84 500q0 59 60.5 92t117.5 33q55 0 139 -34t138 -34q51 0 94 27.5t55 27.5q23 0 36 -19.5t13 -37.5q0 -63 -57 -93t-115 -30q-61 0 -143 34t-135 34q-51 0 -97.5 -30t-58.5 -30q-23 0 -35 20t-12 40z" />
<glyph unicode="&#xa1;" horiz-adv-x="421" d="M102 1411q0 43 31 75t76 32t75.5 -32t30.5 -75q0 -45 -30.5 -76.5t-75.5 -31.5t-76 31.5t-31 76.5zM119 76q0 160 12 508t12 508q0 27 20.5 41t45.5 14q29 0 48 -14.5t19 -40.5q0 -160 13.5 -508t13.5 -508q0 -41 -26.5 -64.5t-67.5 -23.5q-39 0 -64.5 23.5t-25.5 64.5z " />
<glyph unicode="&#xa2;" horiz-adv-x="856" d="M66 733v41q0 158 82.5 264.5t248.5 126.5v203q0 23 17.5 38t40.5 15q25 0 42 -15t17 -38v-201q111 -8 188.5 -48t77.5 -87q0 -31 -21.5 -56.5t-49.5 -25.5q-8 0 -64.5 33t-130.5 37v-531q74 4 129 37t66 33q33 0 55 -24.5t22 -55.5q0 -49 -81.5 -90t-190.5 -49v-203 q0 -20 -18.5 -37.5t-41 -17.5t-40 16.5t-17.5 38.5v205q-164 18 -247.5 124.5t-83.5 266.5zM219 733q0 -203 178 -241v524q-178 -39 -178 -242v-41z" />
<glyph unicode="&#xa3;" horiz-adv-x="1028" d="M47 78q0 33 15.5 55.5t43.5 22.5h117l84 596h-145q-25 0 -38 19.5t-13 45.5q0 29 14 48.5t37 19.5h164l41 286q25 168 162 285t309 117h49q29 0 47 -23.5t18 -54.5q0 -29 -18.5 -52.5t-46.5 -23.5h-60q-115 0 -194.5 -71.5t-95.5 -176.5l-41 -286h288q23 0 37.5 -20.5 t14.5 -47t-14.5 -46t-37.5 -19.5h-307l-86 -596h504q27 0 42 -23.5t15 -54.5t-15 -54.5t-42 -23.5h-789q-29 0 -44 22.5t-15 55.5z" />
<glyph unicode="&#xa4;" horiz-adv-x="962" d="M119 664q0 14 10 24l64 62q-72 98 -72 217q0 121 72 215l-54 53q-12 12 -12 27q0 18 15.5 32.5t31.5 14.5q12 0 27 -11l51 -51q98 88 231 88q123 0 226 -82l53 54q14 10 26 10q18 0 33 -14.5t15 -32.5q0 -12 -11 -27l-57 -53q80 -96 80 -223q0 -121 -80 -224l57 -55 q10 -14 11 -24q0 -16 -14.5 -32t-33.5 -16q-16 0 -24 11l-55 53q-102 -86 -226 -86q-127 0 -231 90l-62 -57q-10 -10 -24 -11q-18 0 -32.5 15t-14.5 33zM233 967q0 -102 74 -181t176.5 -79t177 78.5t74.5 181.5q0 98 -73.5 177t-178.5 79q-102 0 -176 -78t-74 -178z" />
<glyph unicode="&#xa5;" horiz-adv-x="1064" d="M47 1430q0 27 32 50t66.5 23t55.5 -43l327 -631l338 631q23 43 56 43q35 0 65.5 -23.5t30.5 -49.5q0 -16 -4 -23l-363 -641h191q23 0 42 -20.5t19 -47t-18.5 -45t-42.5 -18.5h-230v-146h230q25 0 43 -19t18 -46q0 -29 -18.5 -47.5t-42.5 -18.5h-230v-299q0 -27 -24.5 -43 t-59 -16t-60.5 16.5t-26 42.5v299h-219q-27 0 -43 17.5t-16 46.5t16.5 48t42.5 19h219v146h-219q-27 0 -43 17.5t-16 46t16.5 48t42.5 19.5h180l-350 641q-6 11 -6 23z" />
<glyph unicode="&#xa6;" horiz-adv-x="436" d="M133 16v545q0 27 23.5 43.5t60.5 16.5t61.5 -16.5t24.5 -43.5v-545q0 -23 -25.5 -41t-60.5 -18q-37 0 -60.5 17t-23.5 42zM133 969v544q0 27 23.5 43.5t60.5 16.5t61.5 -16.5t24.5 -43.5v-544q0 -23 -25.5 -41.5t-60.5 -18.5q-37 0 -60.5 17.5t-23.5 42.5z" />
<glyph unicode="&#xa7;" horiz-adv-x="960" d="M94 203q0 74 76 73.5t76 -55.5q0 -78 48 -144.5t167 -66.5q113 0 172 58.5t59 160.5q0 86 -59.5 137.5t-143 81t-168.5 67.5t-144.5 122t-59.5 215v244q0 117 33.5 199.5t92 123.5t117 59.5t123.5 18.5q164 0 253 -94t89 -238q0 -76 -69 -75q-78 0 -78 69q0 72 -43 132.5 t-146 60.5q-90 0 -151.5 -56.5t-61.5 -171.5q0 -72 44.5 -122t109 -73.5t141 -55t141 -68.5t108.5 -115t44 -188v-242q0 -207 -111.5 -302t-277.5 -95q-174 0 -277.5 100.5t-103.5 239.5zM264 827q0 -76 34 -127t88 -78.5t112.5 -47t121 -48t97.5 -65.5v55q0 92 -53.5 151.5 t-122 80t-152.5 55.5t-125 78v-54z" />
<glyph unicode="&#xa8;" horiz-adv-x="432" d="M0 1290q0 35 24.5 59.5t59.5 24.5t58.5 -24.5t23.5 -59.5t-24.5 -60.5t-57.5 -25.5q-35 0 -59.5 25.5t-24.5 60.5zM268 1290q0 35 23.5 59.5t58.5 24.5t58.5 -24.5t23.5 -59.5t-23.5 -60.5t-58.5 -25.5t-58.5 25.5t-23.5 60.5z" />
<glyph unicode="&#xa9;" horiz-adv-x="1454" d="M98 733q0 164 58.5 296t152.5 211t204 121t220.5 42t219 -42t199.5 -121t147.5 -209t56.5 -290q0 -164 -58.5 -296t-152.5 -210.5t-204 -120.5t-220.5 -42t-219 42t-199.5 120.5t-147.5 208.5t-56.5 290zM199 733q0 -246 144 -403.5t378 -157.5q236 0 385 158.5 t149 410.5q0 246 -144 404t-378 158q-236 0 -385 -159t-149 -411zM506 596v311q0 129 62.5 189.5t160.5 60.5q102 0 164.5 -56.5t62.5 -146.5q0 -35 -12 -47t-43 -12q-55 0 -55 39q-6 121 -113 121q-117 0 -117 -148v-311q0 -150 117 -150q35 0 57.5 11.5t34 36t14.5 39 t7 42.5q2 39 55 39q31 0 43 -13t12 -48q0 -92 -63.5 -149.5t-165.5 -57.5q-98 0 -159.5 60.5t-61.5 189.5z" />
<glyph unicode="&#xaa;" horiz-adv-x="653" d="M66 1059q0 104 78.5 145t230.5 41h59v25q0 61 -33.5 106t-101.5 45q-57 0 -100 -19.5t-47 -19.5q-20 0 -33 19.5t-13 44.5q0 31 63.5 56.5t131.5 25.5q131 0 194.5 -74t63.5 -184v-332q0 -18 -17.5 -31.5t-43.5 -13.5q-23 0 -40.5 13.5t-17.5 31.5v47q-86 -100 -207 -100 q-74 0 -120.5 45t-46.5 129zM193 1073q0 -45 25.5 -68.5t66.5 -23.5q53 0 101 43t48 90v57h-53q-188 0 -188 -98z" />
<glyph unicode="&#xab;" horiz-adv-x="888" d="M66 567.5q0 16.5 28 69.5l172 321q16 27 55 27t70 -28.5t31 -57.5q0 -10 -6 -22l-166 -310l166 -309q6 -8 6 -22q0 -29 -32 -56.5t-70.5 -27.5t-53.5 26l-172 320q-28 53 -28 69.5zM451 567q0 16 28 70l172 321q12 27 56 27q39 0 69.5 -28.5t30.5 -57.5q0 -10 -6 -22 l-166 -310l166 -309q6 -8 6 -22q0 -29 -32 -56.5t-70.5 -27.5t-53.5 26l-172 320q-28 51 -28 69z" />
<glyph unicode="&#xac;" horiz-adv-x="995" d="M90 492q0 31 16.5 52t43.5 21h659q25 0 43 -21.5t18 -51.5v-304q0 -23 -24.5 -41t-59.5 -18q-37 0 -61.5 17.5t-24.5 41.5v232h-550q-60 0 -60 72z" />
<glyph unicode="&#xad;" horiz-adv-x="968" d="M96 492q0 31 16.5 52t43.5 21h655q25 0 43 -21.5t18 -52t-18 -51t-43 -20.5h-655q-60 0 -60 72z" />
<glyph unicode="&#xae;" horiz-adv-x="1454" d="M98 733q0 164 58.5 296t152.5 211t204 121t220.5 42t219 -42t199.5 -121t147.5 -209t56.5 -290q0 -164 -58.5 -296t-152.5 -210.5t-204 -120.5t-220.5 -42t-219 42t-199.5 120.5t-147.5 208.5t-56.5 290zM199 733q0 -246 144 -403.5t378 -157.5q236 0 385 158.5 t149 410.5q0 246 -144 404t-378 158q-236 0 -385 -159t-149 -411zM526 395v709q0 14 10.5 25.5t26.5 11.5h185q225 0 225 -219q0 -174 -137 -211l133 -285q2 -6 2 -14q0 -20 -18.5 -39t-41.5 -19q-20 0 -39 37l-141 303h-98v-299q0 -39 -51 -39q-56 0 -56 39zM633 784h115 q119 0 118 127q0 133 -118 133h-115v-260z" />
<glyph unicode="&#xaf;" horiz-adv-x="555" d="M0 1347.5q0 26.5 16.5 45t42.5 18.5h435q23 0 42 -19.5t19 -43.5q0 -27 -18.5 -44.5t-42.5 -17.5h-435q-27 0 -43 17.5t-16 44z" />
<glyph unicode="&#xb0;" horiz-adv-x="845" d="M59 1204.5q0 147.5 107.5 258t255 110.5t256 -108.5t108.5 -260.5q0 -147 -109.5 -260t-255 -113t-254 113t-108.5 260.5zM172 1204q0 -102 73.5 -181t176 -79t177.5 79t75 181q0 98 -74 177t-178 79q-102 0 -176 -78t-74 -178z" />
<glyph unicode="&#xb1;" horiz-adv-x="962" d="M94 174q0 31 16.5 52.5t43.5 21.5h655q25 0 43 -21.5t18 -52.5t-18 -51.5t-43 -20.5h-655q-27 0 -43.5 19.5t-16.5 52.5zM94 731q0 31 16.5 52.5t43.5 21.5h256v246q0 25 21.5 43t52 18t51 -18.5t20.5 -42.5v-246h254q25 0 43 -21.5t18 -52.5t-18 -51.5t-43 -20.5h-254 v-247q0 -27 -19.5 -43.5t-52.5 -16.5q-31 0 -52 16.5t-21 43.5v247h-256q-27 0 -43.5 19.5t-16.5 52.5z" />
<glyph unicode="&#xb2;" horiz-adv-x="634" d="M61 754v102q0 57 60.5 116.5t133.5 100.5t133.5 96.5t60.5 108.5q0 41 -33 73.5t-97 32.5q-119 0 -118 -102q0 -18 -18.5 -31.5t-47.5 -13.5q-55 0 -55 66q0 86 69.5 140t169.5 54q106 0 179 -59.5t73 -155.5q0 -63 -38.5 -118.5t-95 -94.5t-113 -72.5t-95.5 -68.5 t-39 -66v-41h347q16 0 28.5 -15t12.5 -38t-12.5 -39t-28.5 -16h-418q-20 0 -39 12.5t-19 28.5z" />
<glyph unicode="&#xb3;" horiz-adv-x="649" d="M53 897q0 29 12.5 39t45.5 10q37 0 51 -9t14 -34q0 -37 36 -62.5t103 -25.5q74 0 109 29.5t35 97.5v19q0 113 -144 112q-41 0 -41 47q0 51 41 51q59 0 90 24t31 89q0 104 -117 105q-125 0 -124 -82q0 -47 -58 -47q-41 0 -52 10t-11 43q0 70 57 127t188 57q238 0 238 -192 q0 -137 -94 -179q119 -41 119 -165v-19q0 -123 -74 -179t-195 -56q-127 0 -193.5 58t-66.5 132z" />
<glyph unicode="&#xb4;" horiz-adv-x="344" d="M0 1266q0 31 27 45l239 127q12 4 21 4q25 0 41 -21.5t16 -48.5q0 -35 -29 -49l-231 -119q-16 -8 -23 -8q-25 0 -43 21.5t-18 48.5z" />
<glyph unicode="&#xb5;" horiz-adv-x="1017" d="M135 -410v1319q0 25 24.5 43.5t59.5 18.5q33 0 59.5 -19.5t26.5 -42.5v-561q0 -68 74 -139.5t162 -71.5q90 0 157.5 74t67.5 166v532q0 25 25.5 43.5t58.5 18.5q37 0 61.5 -17.5t24.5 -44.5v-532q0 -160 -115.5 -276.5t-281.5 -116.5q-158 0 -250 118v-512 q0 -23 -21.5 -41t-50.5 -18q-35 0 -58.5 17t-23.5 42z" />
<glyph unicode="&#xb6;" horiz-adv-x="1087" d="M59 1051v24q0 219 110 320.5t292 101.5h420q25 0 43 -16.5t18 -44.5v-1377q0 -29 -18.5 -44t-43 -15t-43 15.5t-18.5 43.5v1340h-162v-1338q0 -29 -18 -45t-43 -16t-43 16.5t-18 44.5v566h-74q-182 0 -292 102.5t-110 321.5z" />
<glyph unicode="&#xb7;" horiz-adv-x="385" d="M82 614q0 41 32.5 72t80.5 31q45 0 76.5 -31t31.5 -72t-31.5 -71.5t-76.5 -30.5q-47 0 -80 30.5t-33 71.5z" />
<glyph unicode="&#xb8;" horiz-adv-x="354" d="M0 -379q0 14 10 35.5t27 21.5q4 0 40 -14t75 -14q106 0 106 76q0 74 -121 84l-88 6l53 202h93l-37 -137q98 -2 147 -45t49 -104q0 -66 -48 -116t-142 -50q-55 0 -109.5 14t-54.5 41z" />
<glyph unicode="&#xb9;" horiz-adv-x="358" d="M29 1337q0 31 24 45l123 105q12 12 32.5 12t37 -11t16.5 -30v-704q0 -41 -61.5 -41t-61.5 41v585l-41 -41q-12 -10 -26 -10q-18 0 -30.5 15.5t-12.5 33.5z" />
<glyph unicode="&#xba;" horiz-adv-x="677" d="M72 1143v127q0 104 77.5 181t188.5 77q109 0 188.5 -77t79.5 -181v-127q0 -102 -81 -181t-187.5 -79t-186 79t-79.5 181zM199 1143q0 -57 41 -102.5t98 -45.5t100 45t43 103v127q0 57 -42 100t-101 43q-57 0 -98 -43t-41 -100v-127z" />
<glyph unicode="&#xbb;" horiz-adv-x="888" d="M82 236q0 14 6 22l166 309l-166 310q-6 12 -6 22q0 29 30.5 57.5t69.5 28.5t56 -27l172 -321q29 -53 28.5 -69.5t-28.5 -69.5l-172 -320q-14 -27 -53.5 -26.5t-71 28t-31.5 56.5zM465 236q0 14 6 22l168 309l-168 310q-6 12 -6 22q0 29 30.5 57.5t69.5 28.5q41 0 56 -27 l174 -321q29 -53 28.5 -69.5t-28.5 -69.5l-174 -320q-14 -27 -53.5 -26.5t-71 28t-31.5 56.5z" />
<glyph unicode="&#xbc;" horiz-adv-x="1267" d="M55 1337q0 31 25 45l123 105q12 12 32.5 12t37 -11t16.5 -30v-704q0 -41 -61.5 -41t-61.5 41v585l-41 -41q-12 -10 -27 -10q-18 0 -30.5 15.5t-12.5 33.5zM145 0q0 14 7 27l768 1519q14 31 51 31q27 0 48 -19.5t21 -48.5q0 -14 -6 -28l-766 -1510q-14 -33 -57 -32 q-27 0 -46.5 18t-19.5 43zM666 219q0 12 6 25l284 508q20 33 56 32q20 0 40.5 -13t20.5 -34q0 -6 -4 -18l-246 -430h176v135q0 39 60 39q63 0 63 -39v-135h60q41 0 41 -58q0 -23 -13.5 -40t-27.5 -17h-60v-133q0 -41 -63 -41q-59 0 -60 41v133h-290q-43 0 -43 45z" />
<glyph unicode="&#xbd;" horiz-adv-x="1280" d="M53 1337q0 31 25 45l123 105q12 12 32.5 12t37 -11t16.5 -30v-704q0 -41 -61.5 -41t-61.5 41v585l-41 -41q-12 -10 -27 -10q-18 0 -30.5 15.5t-12.5 33.5zM111 0q0 14 6 27l768 1519q16 31 51 31q27 0 48.5 -19.5t21.5 -48.5q0 -14 -7 -28l-766 -1510q-14 -33 -57 -32 q-27 0 -46 18t-19 43zM705 41v104q0 57 60 115.5t133 99.5t133.5 96.5t60.5 108.5q0 41 -33 74t-96 33q-119 0 -119 -103q0 -18 -18.5 -31.5t-47.5 -13.5q-55 0 -55 66q0 88 69.5 141t170.5 53q106 0 178.5 -59t72.5 -156q0 -63 -38.5 -118.5t-95 -94.5t-113 -72.5 t-95 -68.5t-38.5 -65v-41h346q16 0 28.5 -15.5t12.5 -38t-12.5 -39t-28.5 -16.5h-418q-20 0 -38.5 12.5t-18.5 28.5z" />
<glyph unicode="&#xbe;" horiz-adv-x="1538" d="M61 897q0 29 12.5 39t45.5 10q37 0 51 -9t14 -34q0 -37 36 -62.5t104 -25.5q74 0 108.5 29.5t34.5 97.5v19q0 113 -143 112q-41 0 -41 47q0 51 41 51q59 0 89.5 24t30.5 89q0 104 -116 105q-125 0 -125 -82q0 -47 -58 -47q-41 0 -52 10t-11 43q0 70 57.5 127t188.5 57 q238 0 237 -192q0 -137 -94 -179q119 -41 119 -165v-19q0 -123 -74 -179t-194 -56q-127 0 -194 58t-67 132zM403 0q0 14 7 27l768 1519q14 31 51 31q27 0 48 -19.5t21 -48.5q0 -14 -6 -28l-766 -1510q-14 -33 -57 -32q-27 0 -46.5 18t-19.5 43zM936 219q0 12 6 25l285 508 q20 33 55 32q20 0 40.5 -13t20.5 -34q0 -6 -4 -18l-245 -430h176v135q0 39 59 39q63 0 64 -39v-135h59q41 0 41 -58q0 -23 -13.5 -40t-27.5 -17h-59v-133q0 -41 -64 -41q-59 0 -59 41v133h-291q-43 0 -43 45z" />
<glyph unicode="&#xbf;" horiz-adv-x="835" d="M61 346q0 84 34 163t69 120t92 96l70 68q53 51 66.5 112.5t13.5 188.5q0 53 69 53q66 0 66 -76q0 -147 -26 -221t-73 -125q-16 -18 -68 -65.5t-82 -79t-57.5 -92t-27.5 -126.5q0 -113 67.5 -175t190.5 -62q63 0 109.5 17.5t65.5 38t40.5 38t42.5 17.5q27 0 47.5 -18.5 t20.5 -49.5q0 -61 -96.5 -120.5t-235.5 -59.5q-186 0 -292 101t-106 257zM367 1411q0 43 30.5 75t75.5 32t76 -32t31 -75q0 -45 -31 -76.5t-76 -31.5q-43 0 -74.5 31.5t-31.5 76.5z" />
<glyph unicode="&#xc0;" horiz-adv-x="1126" d="M35 72q0 4 4 16l418 1362q18 59 106 59t107 -59l417 -1362q0 -4 1.5 -8t1.5 -6q0 -29 -34 -51.5t-73 -22.5q-49 0 -61 39l-91 305h-538l-90 -305q-12 -39 -64 -39q-37 0 -70.5 20.5t-33.5 51.5zM332 485h459l-228 770zM377 1886q0 27 16.5 48.5t40.5 21.5q8 0 21 -4 l239 -127q27 -14 27 -45q0 -27 -18.5 -48.5t-43.5 -21.5q-6 0 -22 8l-231 119q-29 14 -29 49z" />
<glyph unicode="&#xc1;" horiz-adv-x="1126" d="M35 72q0 4 4 16l418 1362q18 59 106 59t107 -59l417 -1362q0 -4 1.5 -8t1.5 -6q0 -29 -34 -51.5t-73 -22.5q-49 0 -61 39l-91 305h-538l-90 -305q-12 -39 -64 -39q-37 0 -70.5 20.5t-33.5 51.5zM332 485h459l-228 770zM422 1780q0 31 27 45l239 127q12 4 21 4 q25 0 41 -21.5t16 -48.5q0 -35 -29 -49l-231 -119q-16 -8 -23 -8q-25 0 -43 21.5t-18 48.5z" />
<glyph unicode="&#xc2;" horiz-adv-x="1126" d="M35 72q0 4 4 16l418 1362q18 59 106 59t107 -59l417 -1362q0 -4 1.5 -8t1.5 -6q0 -29 -34 -51.5t-73 -22.5q-49 0 -61 39l-91 305h-538l-90 -305q-12 -39 -64 -39q-37 0 -70.5 20.5t-33.5 51.5zM283 1778q0 37 30 53l213 115q20 10 35 10q18 0 35 -10l213 -113 q33 -18 33 -57q0 -23 -13.5 -40.5t-33.5 -17.5q-4 0 -13 2q-4 4 -8 4l-213 115l-213 -115q-8 -6 -18 -6q-18 0 -32.5 18.5t-14.5 41.5zM332 485h459l-228 770z" />
<glyph unicode="&#xc3;" horiz-adv-x="1126" d="M35 72q0 4 4 16l418 1362q18 59 106 59t107 -59l417 -1362q0 -4 1.5 -8t1.5 -6q0 -29 -34 -51.5t-73 -22.5q-49 0 -61 39l-91 305h-538l-90 -305q-12 -39 -64 -39q-37 0 -70.5 20.5t-33.5 51.5zM236 1817q0 59 60 92t118 33q55 0 139 -34t137 -34q51 0 94 27.5t56 27.5 q23 0 36 -19.5t13 -37.5q0 -63 -57.5 -93t-114.5 -30q-61 0 -143 34t-136 34q-51 0 -97 -30t-58 -30q-23 0 -35 20t-12 40zM332 485h459l-228 770z" />
<glyph unicode="&#xc4;" horiz-adv-x="1126" d="M35 72q0 4 4 16l418 1362q18 59 106 59t107 -59l417 -1362q0 -4 1.5 -8t1.5 -6q0 -29 -34 -51.5t-73 -22.5q-49 0 -61 39l-91 305h-538l-90 -305q-12 -39 -64 -39q-37 0 -70.5 20.5t-33.5 51.5zM332 485h459l-228 770zM346 1804q0 35 24.5 59.5t59.5 24.5t58.5 -24.5 t23.5 -59.5t-24.5 -60.5t-57.5 -25.5q-35 0 -59.5 25.5t-24.5 60.5zM614 1804q0 35 24 59.5t58.5 24.5t58 -24.5t23.5 -59.5t-23.5 -60.5t-58 -25.5t-58.5 25.5t-24 60.5z" />
<glyph unicode="&#xc5;" horiz-adv-x="1126" d="M35 72q0 4 4 16l418 1362q18 59 106 59t107 -59l417 -1362q0 -4 1.5 -8t1.5 -6q0 -29 -34 -51.5t-73 -22.5q-49 0 -61 39l-91 305h-538l-90 -305q-12 -39 -64 -39q-37 0 -70.5 20.5t-33.5 51.5zM332 485h459l-228 770zM369 1892q0 78 56 136.5t136 58.5q76 0 134.5 -59.5 t58.5 -135.5q0 -78 -58.5 -138t-134.5 -60q-80 0 -136 59t-56 139zM446 1892q0 -45 34 -82.5t81 -37.5q45 0 79 37.5t34 82.5q0 43 -34 78t-79 35q-47 0 -81 -36t-34 -77z" />
<glyph unicode="&#xc6;" horiz-adv-x="1505" d="M139 72v979q0 231 119 338.5t315 107.5h828q29 0 44 -22.5t15 -53.5q0 -35 -15 -57.5t-44 -22.5h-477v-520h286q27 0 43.5 -21.5t16.5 -51.5q0 -27 -15.5 -48.5t-44.5 -21.5h-286v-522h477q29 0 44 -22.5t15 -57.5q0 -31 -15 -53.5t-44 -22.5h-572q-31 0 -54 16.5 t-23 44.5v617h-449v-606q0 -37 -16.5 -54.5t-69.5 -17.5q-78 0 -78 72zM303 821h449v520h-179q-129 0 -199.5 -72.5t-70.5 -217.5v-230z" />
<glyph unicode="&#xc7;" horiz-adv-x="1087" d="M131 434v617q0 229 122 337.5t318 108.5q201 0 322 -101.5t121 -254.5q0 -55 -20.5 -74.5t-65.5 -19.5q-82 0 -86 59q-12 236 -267 235q-272 0 -272 -290v-617q0 -291 279 -291q80 0 133 22.5t78.5 65.5t34 74t14.5 82q6 59 86 59q45 0 65.5 -20t20.5 -76 q0 -141 -101.5 -240.5t-271.5 -117.5l-29 -111q98 -2 147.5 -45t49.5 -104q0 -66 -48 -116t-143 -50q-55 0 -109 14t-54 41q0 14 10 35.5t27 21.5q4 0 39.5 -14t74.5 -14q106 0 107 76q0 74 -121 84l-88 6l45 172q-188 6 -303 113.5t-115 332.5z" />
<glyph unicode="&#xc8;" horiz-adv-x="1052" d="M145 61v1375q0 29 24 45t54 16h729q29 0 44.5 -22.5t15.5 -53.5q0 -33 -16.5 -56.5t-43.5 -23.5h-635v-520h320q27 0 43 -21.5t16 -51.5q0 -27 -15 -48.5t-44 -21.5h-320v-522h635q27 0 43.5 -23.5t16.5 -56.5q0 -31 -15.5 -53.5t-44.5 -22.5h-729q-31 0 -54.5 16 t-23.5 45zM401 1886q0 27 16.5 48.5t41.5 21.5q8 0 20 -4l240 -127q27 -14 26 -45q0 -27 -18 -48.5t-43 -21.5q-6 0 -22 8l-232 119q-29 14 -29 49z" />
<glyph unicode="&#xc9;" horiz-adv-x="1052" d="M145 61v1375q0 29 24 45t54 16h729q29 0 44.5 -22.5t15.5 -53.5q0 -33 -16.5 -56.5t-43.5 -23.5h-635v-520h320q27 0 43 -21.5t16 -51.5q0 -27 -15 -48.5t-44 -21.5h-320v-522h635q27 0 43.5 -23.5t16.5 -56.5q0 -31 -15.5 -53.5t-44.5 -22.5h-729q-31 0 -54.5 16 t-23.5 45zM426 1780q0 31 27 45l239 127q12 4 21 4q25 0 41 -21.5t16 -48.5q0 -35 -29 -49l-231 -119q-16 -8 -23 -8q-25 0 -43 21.5t-18 48.5z" />
<glyph unicode="&#xca;" horiz-adv-x="1052" d="M145 61v1375q0 29 24 45t54 16h729q29 0 44.5 -22.5t15.5 -53.5q0 -33 -16.5 -56.5t-43.5 -23.5h-635v-520h320q27 0 43 -21.5t16 -51.5q0 -27 -15 -48.5t-44 -21.5h-320v-522h635q27 0 43.5 -23.5t16.5 -56.5q0 -31 -15.5 -53.5t-44.5 -22.5h-729q-31 0 -54.5 16 t-23.5 45zM305 1778q0 37 31 53l213 115q20 10 35 10q18 0 34 -10l213 -113q33 -18 33 -57q0 -23 -14 -40.5t-33 -17.5q-4 0 -12 2q-4 4 -8 4l-213 115l-213 -115q-10 -6 -19 -6q-18 0 -32.5 18.5t-14.5 41.5z" />
<glyph unicode="&#xcb;" horiz-adv-x="1052" d="M145 61v1375q0 29 24 45t54 16h729q29 0 44.5 -22.5t15.5 -53.5q0 -33 -16.5 -56.5t-43.5 -23.5h-635v-520h320q27 0 43 -21.5t16 -51.5q0 -27 -15 -48.5t-44 -21.5h-320v-522h635q27 0 43.5 -23.5t16.5 -56.5q0 -31 -15.5 -53.5t-44.5 -22.5h-729q-31 0 -54.5 16 t-23.5 45zM362 1804q0 35 25 59.5t59.5 24.5t58 -24.5t23.5 -59.5t-24.5 -60.5t-57.5 -25.5q-35 0 -59.5 25.5t-24.5 60.5zM631 1804q0 35 23.5 59.5t58.5 24.5t58.5 -24.5t23.5 -59.5t-23.5 -60.5t-58.5 -25.5t-58.5 25.5t-23.5 60.5z" />
<glyph unicode="&#xcc;" horiz-adv-x="462" d="M51 1886q0 27 16.5 48.5t41.5 21.5q8 0 20 -4l240 -127q27 -14 26 -45q0 -27 -18.5 -48.5t-42.5 -21.5q-6 0 -23 8l-231 119q-29 14 -29 49zM145 61v1377q0 29 26 44t60.5 15t60 -15.5t25.5 -43.5v-1377q0 -29 -25.5 -45t-60 -16t-60.5 16t-26 45z" />
<glyph unicode="&#xcd;" horiz-adv-x="462" d="M66 1780q0 31 26 45l240 127q12 4 20 4q25 0 41.5 -21.5t16.5 -48.5q0 -35 -29 -49l-231 -119q-16 -8 -23 -8q-25 0 -43 21.5t-18 48.5zM145 61v1377q0 29 26 44t60.5 15t60 -15.5t25.5 -43.5v-1377q0 -29 -25.5 -45t-60 -16t-60.5 16t-26 45z" />
<glyph unicode="&#xce;" horiz-adv-x="462" d="M-47 1778q0 37 31 53l213 115q20 10 34 10q18 0 35 -10l213 -113q33 -18 33 -57q0 -23 -14.5 -40.5t-32.5 -17.5q-4 0 -12 2q-4 4 -9 4l-213 115l-213 -115q-10 -6 -18 -6q-18 0 -32.5 18.5t-14.5 41.5zM145 61v1377q0 29 26 44t60.5 15t60 -15.5t25.5 -43.5v-1377 q0 -29 -25.5 -45t-60 -16t-60.5 16t-26 45z" />
<glyph unicode="&#xcf;" horiz-adv-x="462" d="M16 1804q0 35 25 59.5t59.5 24.5t58 -24.5t23.5 -59.5t-24.5 -60.5t-57.5 -25.5q-35 0 -59.5 25.5t-24.5 60.5zM145 61v1377q0 29 26 44t60.5 15t60 -15.5t25.5 -43.5v-1377q0 -29 -25.5 -45t-60 -16t-60.5 16t-26 45zM285 1804q0 35 23.5 59.5t58 24.5t58.5 -24.5 t24 -59.5t-24 -60.5t-58.5 -25.5t-58 25.5t-23.5 60.5z" />
<glyph unicode="&#xd0;" horiz-adv-x="1175" d="M-6 784q0 29 14.5 48.5t36.5 19.5h117v586q0 25 21.5 42t56.5 17h362q201 0 321.5 -107.5t120.5 -338.5v-605q0 -231 -120.5 -338.5t-321.5 -107.5h-362q-35 0 -56.5 17.5t-21.5 41.5v660h-117q-25 0 -38 19t-13 46zM334 156h268q129 0 199.5 72.5t70.5 217.5v605 q0 145 -70.5 217.5t-199.5 72.5h-268v-489h211q23 0 38 -20.5t15 -47t-15.5 -46t-37.5 -19.5h-211v-563z" />
<glyph unicode="&#xd1;" horiz-adv-x="1189" d="M145 61v1377q0 59 86 59q43 0 73 -25.5t58 -82.5l510 -998v1047q0 29 26 44t60.5 15t60 -15.5t25.5 -43.5v-1377q0 -29 -25.5 -45t-60.5 -16q-66 0 -108 78l-533 1030v-1047q0 -29 -25.5 -45t-60 -16t-60.5 16t-26 45zM260 1817q0 59 60.5 92t117.5 33q55 0 139.5 -34 t137.5 -34q51 0 94 27.5t55 27.5q23 0 36 -19.5t13 -37.5q0 -63 -57 -93t-115 -30q-61 0 -143 34t-135 34q-51 0 -97.5 -30t-58.5 -30q-23 0 -35 20t-12 40z" />
<glyph unicode="&#xd2;" d="M131 434v617q0 231 120 338.5t320.5 107.5t321.5 -107.5t121 -338.5v-617q0 -231 -121 -338.5t-321.5 -107.5t-320.5 107.5t-120 338.5zM303 434q0 -291 268 -291q129 0 200 73t71 218v617q0 145 -71 217.5t-200 72.5q-268 0 -268 -290v-617zM387 1886q0 27 16.5 48.5 t40.5 21.5q8 0 21 -4l240 -127q27 -14 26 -45q0 -27 -18.5 -48.5t-42.5 -21.5q-6 0 -23 8l-231 119q-29 14 -29 49z" />
<glyph unicode="&#xd3;" d="M131 434v617q0 231 120 338.5t320.5 107.5t321.5 -107.5t121 -338.5v-617q0 -231 -121 -338.5t-321.5 -107.5t-320.5 107.5t-120 338.5zM303 434q0 -291 268 -291q129 0 200 73t71 218v617q0 145 -71 217.5t-200 72.5q-268 0 -268 -290v-617zM436 1780q0 31 27 45 l239 127q12 4 21 4q25 0 41 -21.5t16 -48.5q0 -35 -28 -49l-232 -119q-16 -8 -22 -8q-25 0 -43.5 21.5t-18.5 48.5z" />
<glyph unicode="&#xd4;" d="M131 434v617q0 231 120 338.5t320.5 107.5t321.5 -107.5t121 -338.5v-617q0 -231 -121 -338.5t-321.5 -107.5t-320.5 107.5t-120 338.5zM293 1778q0 37 31 53l213 115q20 10 34 10q18 0 35 -10l213 -113q33 -18 33 -57q0 -23 -14.5 -40.5t-32.5 -17.5q-4 0 -12 2 q-4 4 -9 4l-213 115l-213 -115q-10 -6 -18 -6q-18 0 -32.5 18.5t-14.5 41.5zM303 434q0 -291 268 -291q129 0 200 73t71 218v617q0 145 -71 217.5t-200 72.5q-268 0 -268 -290v-617z" />
<glyph unicode="&#xd5;" d="M131 434v617q0 231 120 338.5t320.5 107.5t321.5 -107.5t121 -338.5v-617q0 -231 -121 -338.5t-321.5 -107.5t-320.5 107.5t-120 338.5zM246 1817q0 59 60.5 92t117.5 33q55 0 139 -34t137 -34q51 0 94.5 27.5t55.5 27.5q23 0 36 -19.5t13 -37.5q0 -63 -57.5 -93 t-114.5 -30q-61 0 -143 34t-135 34q-51 0 -97.5 -30t-58.5 -30q-23 0 -35 20t-12 40zM303 434q0 -291 268 -291q129 0 200 73t71 218v617q0 145 -71 217.5t-200 72.5q-268 0 -268 -290v-617z" />
<glyph unicode="&#xd6;" d="M131 434v617q0 231 120 338.5t320.5 107.5t321.5 -107.5t121 -338.5v-617q0 -231 -121 -338.5t-321.5 -107.5t-320.5 107.5t-120 338.5zM303 434q0 -291 268 -291q129 0 200 73t71 218v617q0 145 -71 217.5t-200 72.5q-268 0 -268 -290v-617zM356 1804q0 35 25 59.5 t59.5 24.5t58 -24.5t23.5 -59.5t-24.5 -60.5t-57.5 -25.5q-35 0 -59.5 25.5t-24.5 60.5zM625 1804q0 35 23.5 59.5t58 24.5t58 -24.5t23.5 -59.5t-23.5 -60.5t-58 -25.5t-58 25.5t-23.5 60.5z" />
<glyph unicode="&#xd7;" horiz-adv-x="819" d="M111 344q0 23 14 39l190 180l-188 178q-16 16 -16 41q0 31 25.5 55.5t53.5 24.5q25 0 41 -16l179 -178l178 178q16 16 41 16q31 0 55.5 -24.5t24.5 -55.5q0 -25 -17 -41l-186 -178l188 -180q16 -20 17 -39q0 -29 -26 -54.5t-56 -25.5q-23 0 -39 15l-180 182l-181 -182 q-16 -14 -39 -15q-29 0 -54 25.5t-25 54.5z" />
<glyph unicode="&#xd8;" d="M127 0q0 18 6 27l66 131q-68 106 -68 276v617q0 231 120 338.5t320 107.5q158 0 271 -70l59 119q16 31 49 31q27 0 49.5 -19.5t22.5 -48.5q0 -14 -8 -28l-74 -148q74 -106 74 -282v-617q0 -231 -121 -338.5t-322 -107.5q-170 0 -276 71l-45 -88q-14 -33 -57 -32 q-29 0 -47.5 18t-18.5 43zM303 434q0 -27 4 -63l457 905q-70 66 -193 65q-268 0 -268 -290v-617zM373 215q66 -72 198 -72q129 0 200 73t71 218v617q0 41 -6 77z" />
<glyph unicode="&#xd9;" horiz-adv-x="1173" d="M139 434v1004q0 29 25.5 44t60.5 15t60.5 -15.5t25.5 -43.5v-1004q0 -291 275 -291q133 0 204.5 73t71.5 218v1004q0 59 86 59q35 0 60.5 -15.5t25.5 -43.5v-1004q0 -231 -123 -338.5t-325.5 -107.5t-324.5 107.5t-122 338.5zM395 1886q0 27 16.5 48.5t41.5 21.5 q8 0 20 -4l240 -127q27 -14 26 -45q0 -27 -18.5 -48.5t-42.5 -21.5q-6 0 -23 8l-231 119q-29 14 -29 49z" />
<glyph unicode="&#xda;" horiz-adv-x="1173" d="M139 434v1004q0 29 25.5 44t60.5 15t60.5 -15.5t25.5 -43.5v-1004q0 -291 275 -291q133 0 204.5 73t71.5 218v1004q0 59 86 59q35 0 60.5 -15.5t25.5 -43.5v-1004q0 -231 -123 -338.5t-325.5 -107.5t-324.5 107.5t-122 338.5zM436 1780q0 31 27 45l239 127q12 4 21 4 q25 0 41 -21.5t16 -48.5q0 -35 -28 -49l-232 -119q-16 -8 -22 -8q-25 0 -43.5 21.5t-18.5 48.5z" />
<glyph unicode="&#xdb;" horiz-adv-x="1173" d="M139 434v1004q0 29 25.5 44t60.5 15t60.5 -15.5t25.5 -43.5v-1004q0 -291 275 -291q133 0 204.5 73t71.5 218v1004q0 59 86 59q35 0 60.5 -15.5t25.5 -43.5v-1004q0 -231 -123 -338.5t-325.5 -107.5t-324.5 107.5t-122 338.5zM301 1778q0 37 31 53l213 115q20 10 35 10 q18 0 34 -10l213 -113q33 -18 33 -57q0 -23 -14.5 -40.5t-32.5 -17.5q-4 0 -12 2q-4 4 -8 4l-213 115l-213 -115q-10 -6 -19 -6q-18 0 -32.5 18.5t-14.5 41.5z" />
<glyph unicode="&#xdc;" horiz-adv-x="1173" d="M139 434v1004q0 29 25.5 44t60.5 15t60.5 -15.5t25.5 -43.5v-1004q0 -291 275 -291q133 0 204.5 73t71.5 218v1004q0 59 86 59q35 0 60.5 -15.5t25.5 -43.5v-1004q0 -231 -123 -338.5t-325.5 -107.5t-324.5 107.5t-122 338.5zM369 1804q0 35 24.5 59.5t59 24.5 t58.5 -24.5t24 -59.5t-25 -60.5t-57 -25.5q-35 0 -59.5 25.5t-24.5 60.5zM637 1804q0 35 23.5 59.5t58.5 24.5t58.5 -24.5t23.5 -59.5t-23.5 -60.5t-58.5 -25.5t-58.5 25.5t-23.5 60.5z" />
<glyph unicode="&#xdd;" horiz-adv-x="1116" d="M35 1425q0 31 33.5 51.5t68.5 20.5q37 0 62 -45l360 -702l359 702q25 45 61.5 45t69 -20.5t32.5 -51.5q0 -16 -8 -34l-424 -791q-4 -6 -4 -20v-519q0 -29 -25.5 -45t-60.5 -16t-60.5 16.5t-25.5 44.5v519q0 10 -6 20l-424 791q-8 18 -8 34zM401 1780q0 31 27 45l240 127 q12 4 20 4q25 0 41 -21.5t16 -48.5q0 -35 -28 -49l-232 -119q-16 -8 -22 -8q-25 0 -43.5 21.5t-18.5 48.5z" />
<glyph unicode="&#xde;" horiz-adv-x="1026" d="M145 61v1391q0 27 24 43t58 16q39 0 63.5 -16t24.5 -43v-338q90 156 279 156q147 0 251.5 -97.5t104.5 -252.5v-293q0 -152 -105.5 -253.5t-240.5 -101.5q-94 0 -177 47.5t-112 114.5v-373q0 -25 -24.5 -43t-59 -18t-60.5 18t-26 43zM315 616q0 -66 71 -128t169 -62 q90 0 157.5 55.5t67.5 145.5v293q0 88 -66.5 142t-158.5 54q-96 0 -168 -55t-72 -141v-304z" />
<glyph unicode="&#xdf;" horiz-adv-x="1159" d="M12 903.5q0 26.5 14.5 47t39.5 20.5h139v213q0 172 87 280.5t271 108.5q162 0 262.5 -94.5t100.5 -278.5q0 -113 -38 -210t-106 -130q113 -23 208 -139.5t95 -271.5v-33q0 -219 -114.5 -338t-280.5 -119q-213 0 -213 98q0 29 13.5 55.5t33.5 26.5q8 0 56.5 -17.5 t97.5 -17.5q115 0 179.5 78t64.5 224v30q0 133 -75 223.5t-220 108.5q-27 4 -39.5 9t-22.5 20.5t-10 42t11.5 41t23.5 18.5t39 10q152 16 151 248q0 123 -52 192.5t-156.5 69.5t-150.5 -66.5t-46 -168.5v-1125q0 -25 -25.5 -42t-62.5 -17q-35 0 -58.5 16.5t-23.5 42.5v779 h-139q-25 0 -39.5 19.5t-14.5 46z" />
<glyph unicode="&#xe0;" horiz-adv-x="917" d="M57 256q0 160 123 222.5t357 62.5h98v43q0 102 -56.5 178t-168.5 76q-86 0 -151.5 -30t-72.5 -30q-29 0 -46 28t-17 58q0 47 93 83t198 36q201 0 296 -113.5t95 -283.5v-525q0 -27 -23.5 -44t-60.5 -17q-33 0 -55.5 17.5t-22.5 43.5v82q-139 -160 -309 -159 q-123 0 -200 69.5t-77 202.5zM229 274q0 -76 43 -114.5t115 -38.5q86 0 167 68.5t81 140.5v106h-72q-59 0 -102 -3t-89 -12t-76 -26.5t-48.5 -47.5t-18.5 -73zM262 1372q0 27 16.5 48.5t40.5 21.5q8 0 21 -4l240 -127q27 -12 26 -45q0 -27 -18.5 -48.5t-42.5 -21.5 q-6 0 -23 8l-231 119q-29 14 -29 49z" />
<glyph unicode="&#xe1;" horiz-adv-x="917" d="M57 256q0 160 123 222.5t357 62.5h98v43q0 102 -56.5 178t-168.5 76q-86 0 -151.5 -30t-72.5 -30q-29 0 -46 28t-17 58q0 47 93 83t198 36q201 0 296 -113.5t95 -283.5v-525q0 -27 -23.5 -44t-60.5 -17q-33 0 -55.5 17.5t-22.5 43.5v82q-139 -160 -309 -159 q-123 0 -200 69.5t-77 202.5zM229 274q0 -76 43 -114.5t115 -38.5q86 0 167 68.5t81 140.5v106h-72q-59 0 -102 -3t-89 -12t-76 -26.5t-48.5 -47.5t-18.5 -73zM279 1266q0 31 26 45l240 127q12 4 20 4q25 0 41.5 -21.5t16.5 -48.5q0 -35 -29 -49l-232 -119q-16 -8 -22 -8 q-25 0 -43 21.5t-18 48.5z" />
<glyph unicode="&#xe2;" horiz-adv-x="917" d="M57 256q0 160 123 222.5t357 62.5h98v43q0 102 -56.5 178t-168.5 76q-86 0 -151.5 -30t-72.5 -30q-29 0 -46 28t-17 58q0 47 93 83t198 36q201 0 296 -113.5t95 -283.5v-525q0 -27 -23.5 -44t-60.5 -17q-33 0 -55.5 17.5t-22.5 43.5v82q-139 -160 -309 -159 q-123 0 -200 69.5t-77 202.5zM154 1264q0 39 30 53l213 115q20 10 35 10q18 0 35 -10l213 -113q33 -18 33 -57q0 -23 -14.5 -40.5t-32.5 -17.5q-4 0 -13 2q-4 4 -8 4l-213 115l-213 -115q-10 -6 -18 -6q-18 0 -32.5 18.5t-14.5 41.5zM229 274q0 -76 43 -114.5t115 -38.5 q86 0 167 68.5t81 140.5v106h-72q-59 0 -102 -3t-89 -12t-76 -26.5t-48.5 -47.5t-18.5 -73z" />
<glyph unicode="&#xe3;" horiz-adv-x="917" d="M57 256q0 160 123 222.5t357 62.5h98v43q0 102 -56.5 178t-168.5 76q-86 0 -151.5 -30t-72.5 -30q-29 0 -46 28t-17 58q0 47 93 83t198 36q201 0 296 -113.5t95 -283.5v-525q0 -27 -23.5 -44t-60.5 -17q-33 0 -55.5 17.5t-22.5 43.5v82q-139 -160 -309 -159 q-123 0 -200 69.5t-77 202.5zM109 1303q0 59 60 91.5t118 32.5q55 0 139 -33.5t137 -33.5q51 0 94 27.5t56 27.5q23 0 36 -19.5t13 -37.5q0 -63 -57.5 -93t-114.5 -30q-61 0 -143 34t-136 34q-51 0 -97 -30t-58 -30q-23 0 -35 20t-12 40zM229 274q0 -76 43 -114.5t115 -38.5 q86 0 167 68.5t81 140.5v106h-72q-59 0 -102 -3t-89 -12t-76 -26.5t-48.5 -47.5t-18.5 -73z" />
<glyph unicode="&#xe4;" horiz-adv-x="917" d="M57 256q0 160 123 222.5t357 62.5h98v43q0 102 -56.5 178t-168.5 76q-86 0 -151.5 -30t-72.5 -30q-29 0 -46 28t-17 58q0 47 93 83t198 36q201 0 296 -113.5t95 -283.5v-525q0 -27 -23.5 -44t-60.5 -17q-33 0 -55.5 17.5t-22.5 43.5v82q-139 -160 -309 -159 q-123 0 -200 69.5t-77 202.5zM217 1290q0 35 24.5 59.5t59.5 24.5t58.5 -24.5t23.5 -59.5t-24.5 -60.5t-57.5 -25.5q-35 0 -59.5 25.5t-24.5 60.5zM229 274q0 -76 43 -114.5t115 -38.5q86 0 167 68.5t81 140.5v106h-72q-59 0 -102 -3t-89 -12t-76 -26.5t-48.5 -47.5 t-18.5 -73zM485 1290q0 35 23.5 59.5t58.5 24.5t58.5 -24.5t23.5 -59.5t-23.5 -60.5t-58.5 -25.5t-58.5 25.5t-23.5 60.5z" />
<glyph unicode="&#xe5;" horiz-adv-x="917" d="M57 256q0 160 123 222.5t357 62.5h98v43q0 102 -56.5 178t-168.5 76q-86 0 -151.5 -30t-72.5 -30q-29 0 -46 28t-17 58q0 47 93 83t198 36q201 0 296 -113.5t95 -283.5v-525q0 -27 -23.5 -44t-60.5 -17q-33 0 -55.5 17.5t-22.5 43.5v82q-139 -160 -309 -159 q-123 0 -200 69.5t-77 202.5zM229 274q0 -76 43 -114.5t115 -38.5q86 0 167 68.5t81 140.5v106h-72q-59 0 -102 -3t-89 -12t-76 -26.5t-48.5 -47.5t-18.5 -73zM244 1378q0 78 56 136.5t136 58.5q76 0 134.5 -59.5t58.5 -135.5q0 -78 -58.5 -138t-134.5 -60q-80 0 -136 59 t-56 139zM322 1378q0 -45 33.5 -83t80.5 -38q45 0 79 38t34 83q0 43 -34 78t-79 35q-47 0 -80.5 -36t-33.5 -77z" />
<glyph unicode="&#xe6;" horiz-adv-x="1501" d="M57 254q0 162 122 224.5t353 62.5h99v45q0 104 -55.5 179t-172.5 75q-82 0 -148.5 -31t-72.5 -31q-27 0 -45 28t-18 60q0 45 94 81t199 36q221 0 315 -182q53 82 135 132t178 50q156 0 276 -103.5t120 -291.5q0 -94 -41 -123t-142 -29h-446v-61q0 -113 80 -180.5 t207 -67.5q88 0 162.5 40t86.5 40q27 0 47.5 -25.5t20.5 -52.5q0 -51 -105.5 -98t-230.5 -47q-117 0 -215 54t-153 150q-63 -100 -158.5 -152t-194.5 -52q-127 0 -212 69.5t-85 200.5zM229 270q0 -72 43 -110.5t113 -38.5q94 0 170 68.5t76 140.5v106h-70q-78 0 -129 -5 t-102 -21.5t-76 -51.5t-25 -88zM807 551h375q57 0 74.5 13.5t17.5 49.5q0 96 -67.5 165t-168.5 69q-96 0 -163.5 -64.5t-67.5 -158.5v-74z" />
<glyph unicode="&#xe7;" horiz-adv-x="854" d="M86 381v205q0 176 103.5 286.5t304.5 110.5q127 0 214 -45t87 -96q0 -29 -21.5 -56.5t-50.5 -27.5q-8 0 -70.5 35.5t-146.5 35.5q-123 0 -186.5 -63.5t-63.5 -179.5v-205q0 -244 252 -244q86 0 149.5 37t73.5 37q33 0 54.5 -26.5t21.5 -55.5q0 -47 -78 -91t-194 -52 l-27 -105q98 -2 147.5 -45t49.5 -104q0 -66 -48.5 -116t-142.5 -50q-55 0 -109.5 14t-54.5 41q0 14 10.5 35.5t26.5 21.5q4 0 40 -14t75 -14q106 0 106 76q0 74 -121 84l-88 6l45 170q-178 12 -268 120.5t-90 274.5z" />
<glyph unicode="&#xe8;" horiz-adv-x="952" d="M84 381v215q0 158 120 272.5t288 114.5q160 0 276.5 -107.5t116.5 -269.5q0 -59 -14.5 -95t-44 -51.5t-55.5 -19.5t-69 -4h-448v-61q0 -113 81 -180.5t210 -67.5q68 0 118 20.5t80.5 40t49.5 19.5q29 0 49 -25.5t20 -52.5q0 -47 -93 -96t-230 -49q-201 0 -328 109.5 t-127 287.5zM254 551h379q53 0 71.5 13.5t18.5 51.5q0 92 -67.5 162t-166.5 70q-96 0 -165.5 -64.5t-69.5 -158.5v-74zM303 1372q0 27 16.5 48.5t40.5 21.5q8 0 21 -4l240 -127q27 -12 26 -45q0 -27 -18.5 -48.5t-42.5 -21.5q-6 0 -23 8l-231 119q-29 14 -29 49z" />
<glyph unicode="&#xe9;" horiz-adv-x="952" d="M84 381v215q0 158 120 272.5t288 114.5q160 0 276.5 -107.5t116.5 -269.5q0 -59 -14.5 -95t-44 -51.5t-55.5 -19.5t-69 -4h-448v-61q0 -113 81 -180.5t210 -67.5q68 0 118 20.5t80.5 40t49.5 19.5q29 0 49 -25.5t20 -52.5q0 -47 -93 -96t-230 -49q-201 0 -328 109.5 t-127 287.5zM254 551h379q53 0 71.5 13.5t18.5 51.5q0 92 -67.5 162t-166.5 70q-96 0 -165.5 -64.5t-69.5 -158.5v-74zM319 1266q0 31 27 45l240 127q12 4 20 4q25 0 41.5 -21.5t16.5 -48.5q0 -35 -29 -49l-232 -119q-16 -8 -22 -8q-25 0 -43.5 21.5t-18.5 48.5z" />
<glyph unicode="&#xea;" horiz-adv-x="952" d="M84 381v215q0 158 120 272.5t288 114.5q160 0 276.5 -107.5t116.5 -269.5q0 -59 -14.5 -95t-44 -51.5t-55.5 -19.5t-69 -4h-448v-61q0 -113 81 -180.5t210 -67.5q68 0 118 20.5t80.5 40t49.5 19.5q29 0 49 -25.5t20 -52.5q0 -47 -93 -96t-230 -49q-201 0 -328 109.5 t-127 287.5zM209 1264q0 39 31 53l213 115q20 10 34 10q18 0 35 -10l213 -113q33 -18 33 -57q0 -23 -13.5 -40.5t-33.5 -17.5q-4 0 -12 2q-4 4 -9 4l-213 115l-213 -115q-8 -6 -18 -6q-18 0 -32.5 18.5t-14.5 41.5zM254 551h379q53 0 71.5 13.5t18.5 51.5q0 92 -67.5 162 t-166.5 70q-96 0 -165.5 -64.5t-69.5 -158.5v-74z" />
<glyph unicode="&#xeb;" horiz-adv-x="952" d="M84 381v215q0 158 120 272.5t288 114.5q160 0 276.5 -107.5t116.5 -269.5q0 -59 -14.5 -95t-44 -51.5t-55.5 -19.5t-69 -4h-448v-61q0 -113 81 -180.5t210 -67.5q68 0 118 20.5t80.5 40t49.5 19.5q29 0 49 -25.5t20 -52.5q0 -47 -93 -96t-230 -49q-201 0 -328 109.5 t-127 287.5zM254 551h379q53 0 71.5 13.5t18.5 51.5q0 92 -67.5 162t-166.5 70q-96 0 -165.5 -64.5t-69.5 -158.5v-74zM270 1290q0 35 24.5 59.5t59.5 24.5t58.5 -24.5t23.5 -59.5t-24.5 -60.5t-57.5 -25.5q-35 0 -59.5 25.5t-24.5 60.5zM539 1290q0 35 23.5 59.5t58 24.5 t58 -24.5t23.5 -59.5t-23.5 -60.5t-58 -25.5t-58 25.5t-23.5 60.5z" />
<glyph unicode="&#xec;" horiz-adv-x="411" d="M16 1372q0 27 16.5 48.5t41.5 21.5q8 0 20 -4l240 -127q27 -12 26 -45q0 -27 -18 -48.5t-43 -21.5q-6 0 -23 8l-231 119q-29 14 -29 49zM121 61v850q0 27 24.5 43.5t59.5 16.5q37 0 61.5 -16.5t24.5 -43.5v-850q0 -23 -25.5 -42t-60.5 -19t-59.5 18t-24.5 43z" />
<glyph unicode="&#xed;" horiz-adv-x="411" d="M49 1266q0 31 27 45l239 127q12 4 21 4q25 0 41 -21.5t16 -48.5q0 -35 -28 -49l-232 -119q-16 -8 -22 -8q-25 0 -43.5 21.5t-18.5 48.5zM121 61v850q0 27 24.5 43.5t59.5 16.5q37 0 61.5 -16.5t24.5 -43.5v-850q0 -23 -25.5 -42t-60.5 -19t-59.5 18t-24.5 43z" />
<glyph unicode="&#xee;" horiz-adv-x="411" d="M-74 1264q0 39 31 53l213 115q20 10 35 10q18 0 35 -10l213 -113q33 -18 32 -57q0 -23 -13 -40.5t-34 -17.5q-4 0 -12 2q-4 4 -8 4l-213 115l-213 -115q-8 -6 -19 -6q-18 0 -32.5 18.5t-14.5 41.5zM121 61v850q0 27 24.5 43.5t59.5 16.5q37 0 61.5 -16.5t24.5 -43.5v-850 q0 -23 -25.5 -42t-60.5 -19t-59.5 18t-24.5 43z" />
<glyph unicode="&#xef;" horiz-adv-x="411" d="M-6 1290q0 35 24.5 59.5t59.5 24.5t58.5 -24.5t23.5 -59.5t-24.5 -60.5t-57.5 -25.5q-35 0 -59.5 25.5t-24.5 60.5zM121 61v850q0 27 24.5 43.5t59.5 16.5q37 0 61.5 -16.5t24.5 -43.5v-850q0 -23 -25.5 -42t-60.5 -19t-59.5 18t-24.5 43zM262 1290q0 35 23.5 59.5 t58.5 24.5t58.5 -24.5t23.5 -59.5t-23.5 -60.5t-58.5 -25.5t-58.5 25.5t-23.5 60.5z" />
<glyph unicode="&#xf0;" horiz-adv-x="1007" d="M84 381v209q0 160 107.5 276.5t254.5 116.5q92 0 172 -47t109 -121q-16 242 -131 408l-154 -90q-8 -6 -22 -7q-23 0 -43.5 24t-20.5 50q0 29 23 39l141 82q-82 84 -176 88q-41 20 -41 64q0 31 22.5 57t69.5 26q143 0 273 -147l139 82q8 6 20 6q25 0 45.5 -22.5 t20.5 -49.5q0 -29 -25 -41l-129 -77q158 -254 158 -578v-348q0 -156 -122 -276.5t-283 -120.5q-164 0 -286 119.5t-122 277.5zM254 381q0 -96 70.5 -170t167 -74t166 75t69.5 169v215q0 94 -71.5 163.5t-166.5 69.5q-98 0 -166.5 -73.5t-68.5 -165.5v-209z" />
<glyph unicode="&#xf1;" horiz-adv-x="1030" d="M121 61v850q0 27 23.5 43.5t60.5 16.5q31 0 54.5 -17.5t23.5 -42.5v-84q33 66 105.5 111t168.5 45q145 0 253 -115.5t108 -277.5v-529q0 -29 -26 -45t-61 -16q-33 0 -58 16.5t-25 44.5v529q0 92 -70 165.5t-164 73.5q-88 0 -155.5 -66.5t-67.5 -172.5v-529 q0 -23 -26.5 -42t-59.5 -19q-35 0 -59.5 18t-24.5 43zM182 1303q0 59 60.5 91.5t117.5 32.5q55 0 139.5 -33.5t137.5 -33.5q51 0 94 27.5t55 27.5q23 0 36.5 -19.5t13.5 -37.5q0 -63 -57.5 -93t-114.5 -30q-61 0 -143.5 34t-135.5 34q-51 0 -97 -30t-59 -30q-23 0 -35 20 t-12 40z" />
<glyph unicode="&#xf2;" horiz-adv-x="976" d="M84 381v209q0 158 120 275.5t283.5 117.5t284.5 -116.5t121 -276.5v-209q0 -156 -122 -276.5t-283.5 -120.5t-282.5 119.5t-121 277.5zM254 381q0 -96 69.5 -170t163.5 -74q96 0 166 75t70 169v209q0 92 -69.5 165.5t-166 73.5t-165 -73.5t-68.5 -165.5v-209zM303 1372 q0 27 16.5 48.5t40.5 21.5q8 0 21 -4l240 -127q27 -12 26 -45q0 -27 -18.5 -48.5t-42.5 -21.5q-6 0 -23 8l-231 119q-29 14 -29 49z" />
<glyph unicode="&#xf3;" horiz-adv-x="976" d="M84 381v209q0 158 120 275.5t283.5 117.5t284.5 -116.5t121 -276.5v-209q0 -156 -122 -276.5t-283.5 -120.5t-282.5 119.5t-121 277.5zM254 381q0 -96 69.5 -170t163.5 -74q96 0 166 75t70 169v209q0 92 -69.5 165.5t-166 73.5t-165 -73.5t-68.5 -165.5v-209zM319 1266 q0 31 27 45l240 127q12 4 20 4q25 0 41.5 -21.5t16.5 -48.5q0 -35 -29 -49l-232 -119q-16 -8 -22 -8q-25 0 -43.5 21.5t-18.5 48.5z" />
<glyph unicode="&#xf4;" horiz-adv-x="976" d="M84 381v209q0 158 120 275.5t283.5 117.5t284.5 -116.5t121 -276.5v-209q0 -156 -122 -276.5t-283.5 -120.5t-282.5 119.5t-121 277.5zM209 1264q0 39 31 53l213 115q20 10 34 10q18 0 35 -10l213 -113q33 -18 33 -57q0 -23 -13.5 -40.5t-33.5 -17.5q-4 0 -12 2 q-4 4 -9 4l-213 115l-213 -115q-8 -6 -18 -6q-18 0 -32.5 18.5t-14.5 41.5zM254 381q0 -96 69.5 -170t163.5 -74q96 0 166 75t70 169v209q0 92 -69.5 165.5t-166 73.5t-165 -73.5t-68.5 -165.5v-209z" />
<glyph unicode="&#xf5;" horiz-adv-x="976" d="M84 381v209q0 158 120 275.5t283.5 117.5t284.5 -116.5t121 -276.5v-209q0 -156 -122 -276.5t-283.5 -120.5t-282.5 119.5t-121 277.5zM162 1303q0 59 60.5 91.5t117.5 32.5q55 0 139 -33.5t137 -33.5q51 0 94.5 27.5t55.5 27.5q23 0 36 -19.5t13 -37.5q0 -63 -57.5 -93 t-114.5 -30q-61 0 -143 34t-135 34q-51 0 -97.5 -30t-58.5 -30q-23 0 -35 20t-12 40zM254 381q0 -96 69.5 -170t163.5 -74q96 0 166 75t70 169v209q0 92 -69.5 165.5t-166 73.5t-165 -73.5t-68.5 -165.5v-209z" />
<glyph unicode="&#xf6;" horiz-adv-x="976" d="M84 381v209q0 158 120 275.5t283.5 117.5t284.5 -116.5t121 -276.5v-209q0 -156 -122 -276.5t-283.5 -120.5t-282.5 119.5t-121 277.5zM254 381q0 -96 69.5 -170t163.5 -74q96 0 166 75t70 169v209q0 92 -69.5 165.5t-166 73.5t-165 -73.5t-68.5 -165.5v-209zM272 1290 q0 35 25 59.5t59.5 24.5t58 -24.5t23.5 -59.5t-24.5 -60.5t-57.5 -25.5q-35 0 -59.5 25.5t-24.5 60.5zM541 1290q0 35 23.5 59.5t58 24.5t58.5 -24.5t24 -59.5t-24 -60.5t-58.5 -25.5t-58 25.5t-23.5 60.5z" />
<glyph unicode="&#xf7;" horiz-adv-x="919" d="M72 489.5q0 30.5 17 51t44 20.5h651q25 0 44.5 -20.5t19.5 -51t-19.5 -50t-44.5 -19.5h-651q-27 0 -44 19.5t-17 50zM344 152q0 43 33 73.5t76 30.5t74.5 -30.5t31.5 -73.5q0 -41 -32.5 -73t-73.5 -32q-43 0 -76 32t-33 73zM344 829q0 43 33 74t76 31t74.5 -31t31.5 -74 t-31.5 -73.5t-74.5 -30.5t-76 30.5t-33 73.5z" />
<glyph unicode="&#xf8;" horiz-adv-x="976" d="M84 381v209q0 158 120 275.5t283 117.5q111 0 209 -59l60 98q12 20 35 20q18 0 33.5 -14t15.5 -35q0 -14 -11 -30l-59 -95q123 -117 123 -278v-209q0 -156 -122 -276.5t-284 -120.5q-119 0 -219 67l-59 -96q-12 -20 -35 -21q-16 0 -30.5 12.5t-14.5 30.5q0 10 8 27 l64 102q-117 121 -117 275zM254 381q0 -68 35 -127l325 534q-61 41 -127 41q-96 0 -164.5 -73.5t-68.5 -165.5v-209zM350 184q63 -47 137 -47q96 0 166 75t70 169v209q0 68 -43 131z" />
<glyph unicode="&#xf9;" horiz-adv-x="1034" d="M113 377v532q0 25 25.5 43.5t60.5 18.5q33 0 58.5 -19.5t25.5 -42.5v-532q0 -92 69.5 -166t165.5 -74q94 0 164 73t70 167v534q0 23 25.5 41.5t60.5 18.5q37 0 60.5 -17.5t23.5 -42.5v-534q0 -158 -120 -275.5t-284 -117.5q-166 0 -285.5 117.5t-119.5 275.5zM332 1372 q0 27 16.5 48.5t40.5 21.5q8 0 21 -4l239 -127q27 -12 27 -45q0 -27 -18.5 -48.5t-43.5 -21.5q-6 0 -22 8l-232 119q-28 14 -28 49z" />
<glyph unicode="&#xfa;" horiz-adv-x="1034" d="M113 377v532q0 25 25.5 43.5t60.5 18.5q33 0 58.5 -19.5t25.5 -42.5v-532q0 -92 69.5 -166t165.5 -74q94 0 164 73t70 167v534q0 23 25.5 41.5t60.5 18.5q37 0 60.5 -17.5t23.5 -42.5v-534q0 -158 -120 -275.5t-284 -117.5q-166 0 -285.5 117.5t-119.5 275.5zM356 1266 q0 31 27 45l240 127q12 4 20 4q25 0 41 -21.5t16 -48.5q0 -35 -28 -49l-232 -119q-16 -8 -22 -8q-25 0 -43.5 21.5t-18.5 48.5z" />
<glyph unicode="&#xfb;" horiz-adv-x="1034" d="M113 377v532q0 25 25.5 43.5t60.5 18.5q33 0 58.5 -19.5t25.5 -42.5v-532q0 -92 69.5 -166t165.5 -74q94 0 164 73t70 167v534q0 23 25.5 41.5t60.5 18.5q37 0 60.5 -17.5t23.5 -42.5v-534q0 -158 -120 -275.5t-284 -117.5q-166 0 -285.5 117.5t-119.5 275.5zM238 1264 q0 39 30 53l213 115q20 10 35 10q18 0 35 -10l213 -113q33 -18 33 -57q0 -23 -13.5 -40.5t-33.5 -17.5q-4 0 -13 2q-4 4 -8 4l-213 115l-213 -115q-8 -6 -18 -6q-18 0 -32.5 18.5t-14.5 41.5z" />
<glyph unicode="&#xfc;" horiz-adv-x="1034" d="M113 377v532q0 25 25.5 43.5t60.5 18.5q33 0 58.5 -19.5t25.5 -42.5v-532q0 -92 69.5 -166t165.5 -74q94 0 164 73t70 167v534q0 23 25.5 41.5t60.5 18.5q37 0 60.5 -17.5t23.5 -42.5v-534q0 -158 -120 -275.5t-284 -117.5q-166 0 -285.5 117.5t-119.5 275.5zM301 1290 q0 35 24.5 59.5t59.5 24.5t58.5 -24.5t23.5 -59.5t-24.5 -60.5t-57.5 -25.5q-35 0 -59.5 25.5t-24.5 60.5zM569 1290q0 35 23.5 59.5t58.5 24.5t58.5 -24.5t23.5 -59.5t-23.5 -60.5t-58.5 -25.5t-58.5 25.5t-23.5 60.5z" />
<glyph unicode="&#xfd;" horiz-adv-x="894" d="M25 901q0 33 36.5 57.5t73.5 24.5q43 0 55 -35l271 -712l244 712q14 35 53 35q35 0 72.5 -24.5t37.5 -59.5q0 -10 -6 -20l-311 -834l-39 -102q-10 -29 -41 -98.5t-51.5 -100.5t-57 -81t-71.5 -72.5t-83 -41t-102 -18.5q-80 0 -79 76q0 74 49 74q92 0 179 103t118 265 l-340 830q-8 12 -8 22zM315 1266q0 31 27 45l240 127q12 4 20 4q25 0 41 -21.5t16 -48.5q0 -35 -28 -49l-232 -119q-16 -8 -22 -8q-25 0 -43.5 21.5t-18.5 48.5z" />
<glyph unicode="&#xfe;" horiz-adv-x="1011" d="M123 -408v1905q0 27 23.5 43t58.5 16q39 0 63.5 -16t24.5 -43v-670q37 66 106.5 111t159.5 45q154 0 261.5 -115.5t107.5 -277.5v-209q0 -156 -108.5 -276.5t-252.5 -120.5q-90 0 -164.5 46t-109.5 113v-551q0 -23 -25.5 -42t-60.5 -19t-59.5 18t-24.5 43zM293 326 q0 -51 70.5 -120t160.5 -69q92 0 163 75t71 169v209q0 92 -71 165.5t-167 73.5q-90 0 -158.5 -66.5t-68.5 -172.5v-264z" />
<glyph unicode="&#xff;" horiz-adv-x="894" d="M25 901q0 33 36.5 57.5t73.5 24.5q43 0 55 -35l271 -712l244 712q14 35 53 35q35 0 72.5 -24.5t37.5 -59.5q0 -10 -6 -20l-311 -834l-39 -102q-10 -29 -41 -98.5t-51.5 -100.5t-57 -81t-71.5 -72.5t-83 -41t-102 -18.5q-80 0 -79 76q0 74 49 74q92 0 179 103t118 265 l-340 830q-8 12 -8 22zM242 1290q0 35 24.5 59.5t59 24.5t58.5 -24.5t24 -59.5t-25 -60.5t-57 -25.5q-35 0 -59.5 25.5t-24.5 60.5zM510 1290q0 35 23.5 59.5t58.5 24.5t58.5 -24.5t23.5 -59.5t-23.5 -60.5t-58.5 -25.5t-58.5 25.5t-23.5 60.5z" />
<glyph unicode="&#x152;" horiz-adv-x="1714" d="M131 434v617q0 231 112.5 338.5t303.5 107.5q98 0 183 -38t130 -111v88q0 29 23.5 45t54.5 16h676q29 0 44 -22.5t15 -53.5q0 -35 -15.5 -57.5t-43.5 -22.5h-600v-520h284q29 0 44.5 -21.5t15.5 -51.5q0 -27 -15.5 -48.5t-44.5 -21.5h-284v-522h600q29 0 44 -22.5 t15 -57.5q0 -31 -15.5 -53.5t-43.5 -22.5h-676q-31 0 -54.5 16.5t-23.5 44.5v76q-90 -150 -313 -149q-190 0 -303 107.5t-113 338.5zM303 434q0 -291 268 -291q129 0 200 73t71 218v617q0 145 -71 217.5t-200 72.5q-268 0 -268 -290v-617z" />
<glyph unicode="&#x153;" horiz-adv-x="1591" d="M84 381v209q0 158 120 275.5t283 117.5q100 0 187.5 -51t138.5 -135q51 86 135 136t182 50q160 0 277 -107.5t117 -267.5q0 -59 -13.5 -96t-43 -52.5t-55.5 -19.5t-71 -4h-448v-61q0 -113 81 -180.5t214 -67.5q66 0 115 20.5t78.5 40t48.5 19.5q29 0 50 -25.5t21 -54.5 q0 -45 -95 -94t-228 -49q-121 0 -216.5 50t-148.5 138q-53 -86 -140 -137t-186 -51q-162 0 -282.5 119.5t-120.5 277.5zM254 381q0 -96 69.5 -170t163.5 -74q96 0 166 75t70 169v209q0 92 -69.5 165.5t-166 73.5t-165 -73.5t-68.5 -165.5v-209zM893 551h379q53 0 71.5 13.5 t18.5 51.5q0 92 -67.5 162t-166 70t-167 -63.5t-68.5 -155.5v-78z" />
<glyph unicode="&#x178;" horiz-adv-x="1116" d="M35 1425q0 31 33.5 51.5t68.5 20.5q37 0 62 -45l360 -702l359 702q25 45 61.5 45t69 -20.5t32.5 -51.5q0 -16 -8 -34l-424 -791q-4 -6 -4 -20v-519q0 -29 -25.5 -45t-60.5 -16t-60.5 16.5t-25.5 44.5v519q0 10 -6 20l-424 791q-8 18 -8 34zM342 1804q0 35 24.5 59.5 t59.5 24.5t58.5 -24.5t23.5 -59.5t-24.5 -60.5t-57.5 -25.5q-35 0 -59.5 25.5t-24.5 60.5zM610 1804q0 35 23.5 59.5t58.5 24.5t58.5 -24.5t23.5 -59.5t-23.5 -60.5t-58.5 -25.5t-58.5 25.5t-23.5 60.5z" />
<glyph unicode="&#x2c6;" horiz-adv-x="559" d="M0 1264q0 39 31 53l213 115q20 10 35 10q18 0 34 -10l213 -113q33 -18 33 -57q0 -23 -13.5 -40.5t-33.5 -17.5q-4 0 -12 2q-4 4 -8 4l-213 115l-213 -115q-8 -6 -19 -6q-18 0 -32.5 18.5t-14.5 41.5z" />
<glyph unicode="&#x2dc;" horiz-adv-x="653" d="M0 1303q0 59 60.5 91.5t117.5 32.5q55 0 139 -33.5t138 -33.5q51 0 94 27.5t55 27.5q23 0 36 -19.5t13 -37.5q0 -63 -57 -93t-115 -30q-61 0 -143 34t-135 34q-51 0 -97.5 -30t-58.5 -30q-23 0 -35 20t-12 40z" />
<glyph unicode="&#x2000;" horiz-adv-x="1043" />
<glyph unicode="&#x2001;" horiz-adv-x="2087" />
<glyph unicode="&#x2002;" horiz-adv-x="1043" />
<glyph unicode="&#x2003;" horiz-adv-x="2087" />
<glyph unicode="&#x2004;" horiz-adv-x="695" />
<glyph unicode="&#x2005;" horiz-adv-x="521" />
<glyph unicode="&#x2006;" horiz-adv-x="347" />
<glyph unicode="&#x2007;" horiz-adv-x="347" />
<glyph unicode="&#x2008;" horiz-adv-x="260" />
<glyph unicode="&#x2009;" horiz-adv-x="417" />
<glyph unicode="&#x200a;" horiz-adv-x="115" />
<glyph unicode="&#x2010;" horiz-adv-x="845" d="M96 492q0 31 16.5 52t43.5 21h532q25 0 43.5 -21.5t18.5 -52t-18.5 -51t-43.5 -20.5h-532q-60 0 -60 72z" />
<glyph unicode="&#x2011;" horiz-adv-x="845" d="M96 492q0 31 16.5 52t43.5 21h532q25 0 43.5 -21.5t18.5 -52t-18.5 -51t-43.5 -20.5h-532q-60 0 -60 72z" />
<glyph unicode="&#x2012;" horiz-adv-x="845" d="M96 492q0 31 16.5 52t43.5 21h532q25 0 43.5 -21.5t18.5 -52t-18.5 -51t-43.5 -20.5h-532q-60 0 -60 72z" />
<glyph unicode="&#x2013;" horiz-adv-x="968" d="M96 492q0 31 16.5 52t43.5 21h655q25 0 43 -21.5t18 -52t-18 -51t-43 -20.5h-655q-60 0 -60 72z" />
<glyph unicode="&#x2014;" horiz-adv-x="1542" d="M96 492q0 31 16.5 52t43.5 21h1228q25 0 43.5 -21.5t18.5 -52t-18.5 -51t-43.5 -20.5h-1228q-60 0 -60 72z" />
<glyph unicode="&#x2018;" horiz-adv-x="342" d="M61 1241q0 43 93 250q12 27 41 27q23 0 42 -14.5t19 -37.5q0 -12 -4 -20l-43 -107q66 -27 65 -98q0 -45 -30.5 -75.5t-75.5 -30.5q-43 0 -75 30.5t-32 75.5z" />
<glyph unicode="&#x2019;" horiz-adv-x="337" d="M70 1411q0 43 30.5 75t75.5 32q43 0 75 -32t32 -75t-93 -250q-12 -27 -40 -26q-23 0 -42.5 13t-19.5 36q0 14 4 20l43 107q-65 26 -65 100z" />
<glyph unicode="&#x201a;" horiz-adv-x="360" d="M74 94q0 45 30.5 77t75.5 32q43 0 74 -32t31 -75q0 -47 -90 -250q-12 -29 -43 -28q-23 0 -41.5 14t-18.5 37q0 12 4 20l43 107q-65 26 -65 98z" />
<glyph unicode="&#x201c;" horiz-adv-x="671" d="M61 1241q0 43 93 250q12 27 41 27q23 0 42 -14.5t19 -37.5q0 -12 -4 -20l-43 -107q66 -27 65 -98q0 -45 -30.5 -75.5t-75.5 -30.5q-43 0 -75 30.5t-32 75.5zM391 1241q0 47 90 250q14 27 43 27q23 0 41.5 -14.5t18.5 -37.5q0 -12 -4 -20l-43 -107q68 -27 67 -98 q0 -45 -30.5 -75.5t-75.5 -30.5t-76 30.5t-31 75.5z" />
<glyph unicode="&#x201d;" horiz-adv-x="665" d="M70 1411q0 43 30.5 75t75.5 32q43 0 75 -32t32 -75q0 -49 -93 -250q-12 -27 -40 -26q-23 0 -42.5 13t-19.5 36q0 12 6 20l41 107q-65 26 -65 100zM399 1411q0 43 31 75t76 32q43 0 73.5 -32t30.5 -75q0 -47 -90 -250q-12 -27 -43 -26q-23 0 -41 13t-18 36q0 14 4 20 l43 107q-66 26 -66 100z" />
<glyph unicode="&#x201e;" horiz-adv-x="690" d="M74 94q0 45 30.5 77t75.5 32q43 0 74 -32t31 -75q0 -47 -90 -250q-12 -29 -43 -28q-23 0 -41.5 14t-18.5 37q0 12 4 20l43 107q-65 26 -65 98zM401 94q0 45 31 77t76 32q43 0 74.5 -32t31.5 -75t-92 -250q-12 -29 -41 -28q-23 0 -42 14t-19 37q0 4 4 20l43 107 q-66 26 -66 98z" />
<glyph unicode="&#x2022;" horiz-adv-x="651" d="M92 614.5q0 90.5 70.5 158t165.5 67.5q92 0 161.5 -67.5t69.5 -158t-69.5 -159t-161.5 -68.5q-94 0 -165 68.5t-71 159z" />
<glyph unicode="&#x2026;" horiz-adv-x="1116" d="M76 94q0 45 30.5 77t75.5 32q43 0 74 -32t31 -77q0 -43 -31 -74.5t-74 -31.5q-45 0 -75.5 31.5t-30.5 74.5zM455 94q0 45 30.5 77t75.5 32q43 0 74 -32t31 -77q0 -43 -31 -74.5t-74 -31.5q-45 0 -75.5 31.5t-30.5 74.5zM831 94q0 45 31 77t76 32q43 0 73.5 -32t30.5 -77 q0 -43 -30.5 -74.5t-73.5 -31.5q-45 0 -76 31.5t-31 74.5z" />
<glyph unicode="&#x202f;" horiz-adv-x="417" />
<glyph unicode="&#x2039;" horiz-adv-x="503" d="M66 567.5q0 16.5 28 69.5l172 321q16 27 55 27t70 -28.5t31 -57.5q0 -10 -6 -22l-166 -310l166 -309q6 -8 6 -22q0 -29 -32 -56.5t-70.5 -27.5t-53.5 26l-172 320q-28 53 -28 69.5z" />
<glyph unicode="&#x203a;" horiz-adv-x="503" d="M82 236q0 14 6 22l166 309l-166 310q-6 12 -6 22q0 29 30.5 57.5t69.5 28.5q43 0 56 -27l172 -321q29 -53 28.5 -69.5t-28.5 -69.5l-172 -320q-14 -27 -53.5 -26.5t-71 28t-31.5 56.5z" />
<glyph unicode="&#x205f;" horiz-adv-x="521" />
<glyph unicode="&#x20ac;" horiz-adv-x="1210" d="M59 565.5q0 28.5 16.5 48t43.5 19.5h119v180h-119q-27 0 -43.5 17.5t-16.5 46t16.5 48t43.5 19.5h119v107q0 231 119.5 338.5t318 107.5t321.5 -101.5t123 -265.5q0 -45 -20.5 -63t-65.5 -18q-86 0 -86 57q0 102 -69.5 168.5t-198.5 66.5q-270 0 -270 -290v-107h303 q25 0 43 -19.5t18 -45.5q0 -29 -18.5 -47.5t-42.5 -18.5h-303v-180h303q23 0 42 -20.5t19 -47t-18.5 -45t-42.5 -18.5h-303v-82q0 -123 67.5 -200t204.5 -77q127 0 196.5 66.5t69.5 177.5q0 57 86 57q45 0 65.5 -18t20.5 -66q0 -166 -123 -269t-321 -103 q-203 0 -320.5 111.5t-117.5 320.5v82h-119q-27 0 -43.5 17.5t-16.5 46z" />
<glyph unicode="&#x2122;" horiz-adv-x="1306" d="M84 1522q0 51 37 51h414q35 0 34 -51q0 -53 -34 -54h-152v-460q0 -37 -55.5 -37t-55.5 37v460h-151q-16 0 -26.5 17t-10.5 37zM621 1008v510q0 55 55 55t86 -66l137 -305l137 305q31 66 84 66q55 0 56 -55v-510q0 -37 -56 -37q-53 0 -53 37v333l-131 -286 q-12 -29 -39 -29t-37 29l-129 293v-340q0 -37 -55 -37t-55 37z" />
<glyph unicode="&#x25fc;" horiz-adv-x="983" d="M0 0v983h983v-983h-983z" />
</font>
</defs>
</svg>
