<?xml version="1.0" standalone="no"?>
<!DOCTYPE svg PUBLIC "-//W3C//DTD SVG 1.1//EN" "http://www.w3.org/Graphics/SVG/1.1/DTD/svg11.dtd" >
<svg>
<metadata>
Created by FontForge 20090622 at Fri Aug 11 13:19:09 2017
 By deploy user
Copyright 1990-1998 Bitstream Inc.  All rights reserved.
</metadata>
<defs>
<font id="Swiss721BT-BlackCondensed" horiz-adv-x="1024" >
  <font-face 
    font-family="Swis721 BlkCn BT"
    font-weight="400"
    font-stretch="condensed"
    units-per-em="2048"
    panose-1="2 11 8 6 3 5 2 4 2 4"
    ascent="1556"
    descent="-492"
    x-height="1157"
    cap-height="1540"
    bbox="-342 -483 2370 1972"
    underline-thickness="233"
    underline-position="-99"
    unicode-range="U+0020-U+F002"
  />
<missing-glyph horiz-adv-x="1229" 
d="M102 -362v1806h1024v-1806h-1024zM217 -248h795v1577h-795v-1577z" />
    <glyph glyph-name=".notdef" horiz-adv-x="1229" 
d="M102 -362v1806h1024v-1806h-1024zM217 -248h795v1577h-795v-1577z" />
    <glyph glyph-name=".null" horiz-adv-x="0" 
 />
    <glyph glyph-name="nonmarkingreturn" horiz-adv-x="549" 
 />
    <glyph glyph-name="space" unicode=" " horiz-adv-x="549" 
 />
    <glyph glyph-name="exclam" unicode="!" horiz-adv-x="678" 
d="M250 508l-90 625v407h358v-407l-82 -625h-186zM166 0v352h352v-352h-352z" />
    <glyph glyph-name="quotedbl" unicode="&#x22;" horiz-adv-x="758" 
d="M690 1440v-563h-260v563h260zM326 1440v-563h-258v563h258z" />
    <glyph glyph-name="numbersign" unicode="#" horiz-adv-x="1575" 
d="M946 834h-239l-78 -213h239zM938 1470l-129 -366h227l129 366h289l-129 -366h256l-100 -270h-252l-76 -213h258l-100 -271h-254l-131 -366h-289l131 366h-227l-131 -366h-289l131 366h-258l100 271h254l74 213h-258l98 270h258l129 366h289z" />
    <glyph glyph-name="dollar" unicode="$" horiz-adv-x="1098" 
d="M594 254q66 14 99.5 56t33.5 112q0 55 -31 93.5t-102 70.5v-332zM487 979v295q-59 -11 -90.5 -46.5t-31.5 -92.5q0 -47 31.5 -87.5t90.5 -68.5zM444 -186v198q-185 17 -281.5 137.5t-96.5 335.5v7h280q0 -7 -1 -18.5t-1 -16.5q0 -91 33 -140.5t102 -64.5v379
q-193 70 -291 189t-98 282q0 170 93.5 278t260.5 129v131h189v-129q179 -20 272.5 -127.5t97.5 -298.5h-274q-6 96 -36.5 141.5t-88.5 45.5h-4v-344q228 -85 324 -197t96 -291q0 -188 -98 -296.5t-289 -131.5v-198h-189z" />
    <glyph glyph-name="percent" unicode="%" horiz-adv-x="1692" 
d="M1186 373q0 -118 20.5 -163.5t71.5 -45.5t72.5 46.5t21.5 162.5t-21.5 163.5t-72.5 47.5t-71.5 -46.5t-20.5 -164.5zM944 373q0 218 77.5 310.5t256.5 92.5t256.5 -92.5t77.5 -310.5t-77 -310t-257 -92t-257 92t-77 310zM379 -29l739 1579h195l-738 -1579h-196zM322 1149
q0 -118 20.5 -164.5t71.5 -46.5q50 0 71 46.5t21 164.5q0 117 -21 163t-71 46q-51 0 -71.5 -46t-20.5 -163zM80 1149q0 217 77 309t257 92t257 -92t77 -309q0 -218 -77.5 -311t-256.5 -93q-180 0 -257 93t-77 311z" />
    <glyph glyph-name="ampersand" unicode="&#x26;" horiz-adv-x="1356" 
d="M614 1079q58 39 86.5 82.5t28.5 91.5q0 43 -27 69t-71 26q-42 0 -67 -25.5t-25 -67.5q0 -41 17 -81.5t58 -94.5zM739 313l-225 357q-53 -52 -78.5 -105.5t-25.5 -111.5q0 -91 51 -148t133 -57q31 0 66.5 16t78.5 49zM948 0l-57 78q-79 -58 -164.5 -86.5t-181.5 -28.5
q-203 0 -328 127t-125 330q0 147 65.5 263.5t211.5 229.5q-57 84 -85 163t-28 153q0 152 109.5 251t279.5 99q171 0 274 -90t103 -240q0 -119 -61.5 -214t-190.5 -175l152 -246q21 51 33.5 102t15.5 101h268q-5 -124 -41 -244t-102 -235l213 -338h-361z" />
    <glyph glyph-name="quotesingle" unicode="'" horiz-adv-x="393" 
d="M326 1440v-563h-258v563h258z" />
    <glyph glyph-name="parenleft" unicode="(" horiz-adv-x="688" 
d="M627 -389h-250q-113 248 -167 485.5t-54 478.5q0 258 57.5 496.5t175.5 470.5h250q-89 -232 -133.5 -470.5t-44.5 -483.5q0 -238 41.5 -482.5t124.5 -494.5z" />
    <glyph glyph-name="parenright" unicode=")" horiz-adv-x="688" 
d="M72 -389q84 253 126 497.5t42 479.5q0 245 -44.5 483.5t-134.5 470.5h250q119 -232 176.5 -470.5t57.5 -496.5q0 -241 -54.5 -478.5t-166.5 -485.5h-252z" />
    <glyph glyph-name="asterisk" unicode="*" 
d="M510 958l-174 -247l-172 118l194 242l-280 78l65 203l267 -97v285h200v-285l267 95l69 -205l-282 -74l192 -240l-174 -124z" />
    <glyph glyph-name="plus" unicode="+" horiz-adv-x="1706" 
d="M993 1221v-473h459v-273h-459v-475h-280v475h-459v273h459v473h280z" />
    <glyph glyph-name="comma" unicode="," horiz-adv-x="551" 
d="M100 0v352h353v-278q0 -201 -81.5 -292.5t-269.5 -103.5v125q93 8 141 58t48 139h-191z" />
    <glyph glyph-name="hyphen" unicode="-" horiz-adv-x="797" 
d="M86 424v309h625v-309h-625z" />
    <glyph glyph-name="period" unicode="." horiz-adv-x="551" 
d="M98 0v352h355v-352h-355z" />
    <glyph glyph-name="slash" unicode="/" horiz-adv-x="555" 
d="M98 -190h-170l488 1767h170z" />
    <glyph glyph-name="zero" unicode="0" horiz-adv-x="1098" 
d="M428 760v-113q0 -264 25.5 -333.5t95.5 -69.5q69 0 95 69.5t26 333.5v113v137q0 247 -26 314t-95 67q-70 0 -95.5 -69.5t-25.5 -336.5v-112zM82 760q0 288 17 413.5t59 190.5q58 90 159 138t232 48q132 0 233 -48.5t158 -139.5q41 -66 58.5 -184.5t17.5 -350.5
q0 -252 -8.5 -377.5t-28.5 -205.5q-30 -123 -148.5 -199t-281.5 -76q-134 0 -236.5 50t-160.5 145q-38 61 -54 190t-16 406z" />
    <glyph glyph-name="one" unicode="1" horiz-adv-x="1098" 
d="M440 0v1063h-307v235h17q166 0 265 63t132 189h237v-1550h-344z" />
    <glyph glyph-name="two" unicode="2" horiz-adv-x="1098" 
d="M72 0v25q0 88 19.5 173.5t60.5 172.5q83 181 261 361l38 38l9 10q195 205 195 359q0 71 -28 109t-80 38q-74 0 -107.5 -62t-33.5 -198v-27h-320v41q0 248 121.5 380t349.5 132q206 0 322 -114t116 -316q0 -119 -50 -226.5t-157 -217.5l-69 -69q-190 -185 -238 -306h510
v-303h-919z" />
    <glyph glyph-name="three" unicode="3" horiz-adv-x="1098" 
d="M88 510h321q4 -147 32.5 -209.5t90.5 -62.5t93.5 56.5t31.5 166.5q0 117 -56.5 168t-186.5 51q-21 0 -31.5 -0.5t-19.5 -1.5l-1 242h33q127 0 182.5 49.5t55.5 163.5q0 75 -26 116t-75 41q-60 0 -85.5 -47.5t-29.5 -175.5h-315v20q0 218 119.5 340.5t329.5 122.5
q190 0 310 -109.5t120 -281.5q0 -114 -54.5 -199t-164.5 -145q131 -51 193.5 -142t62.5 -231q0 -223 -125 -348t-348 -125q-218 0 -338.5 130t-120.5 366q0 7 1 22.5t1 22.5z" />
    <glyph glyph-name="four" unicode="4" horiz-adv-x="1098" 
d="M610 561v617l-280 -617h280zM571 0v297h-508v291l486 934h352v-961h133v-264h-133v-297h-330z" />
    <glyph glyph-name="five" unicode="5" horiz-adv-x="1098" 
d="M96 473h319q4 -131 32 -183t94 -52q69 0 99 55.5t30 187.5q0 190 -30.5 253t-109.5 63q-47 0 -78.5 -27t-48.5 -82h-286l28 836h795v-277h-532l-11 -280q62 41 125.5 61.5t132.5 20.5q176 0 261 -130t85 -395q0 -279 -114.5 -419t-341.5 -140q-218 0 -333.5 123.5
t-115.5 355.5v29z" />
    <glyph glyph-name="six" unicode="6" horiz-adv-x="1098" 
d="M444 938q55 36 111.5 54t118.5 18q169 0 253.5 -121.5t84.5 -364.5q0 -279 -113.5 -417t-343.5 -138q-111 0 -196.5 32t-147.5 97q-68 72 -95.5 196t-27.5 449q0 269 14.5 392.5t49.5 199.5q48 105 154 160t257 55q202 0 314 -102.5t112 -286.5v-10h-327q-2 73 -28 109
t-77 36q-62 0 -88.5 -55t-26.5 -194q0 -43 0.5 -65.5t1.5 -43.5zM434 487q0 -140 28 -197t95 -57q59 0 83 55t24 206q0 147 -26.5 201.5t-92.5 54.5q-61 0 -86 -56.5t-25 -206.5z" />
    <glyph glyph-name="seven" unicode="7" horiz-adv-x="1098" 
d="M272 0q27 270 125.5 576.5t266.5 642.5h-572v303h901v-262q-142 -253 -235.5 -574t-130.5 -686h-355z" />
    <glyph glyph-name="eight" unicode="8" horiz-adv-x="1098" 
d="M432 1130q0 -84 33 -135t86 -51q54 0 87.5 51t33.5 135t-31.5 129.5t-89.5 45.5q-57 0 -88 -45.5t-31 -129.5zM426 461q0 -113 30.5 -169t92.5 -56q64 0 94.5 54t30.5 171q0 122 -29.5 176.5t-93.5 54.5q-65 0 -95 -55t-30 -176zM283 823q-83 56 -124.5 135.5
t-41.5 184.5q0 191 114.5 299t317.5 108t317.5 -108t114.5 -299q0 -105 -41.5 -184.5t-124.5 -135.5q92 -57 140.5 -156.5t48.5 -234.5q0 -219 -120.5 -341t-336.5 -122q-214 0 -333.5 122.5t-119.5 340.5q0 135 48 234.5t141 156.5z" />
    <glyph glyph-name="nine" unicode="9" horiz-adv-x="1098" 
d="M645 581q-57 -36 -113.5 -53.5t-115.5 -17.5q-170 0 -253 119t-83 362q0 282 112.5 420.5t342.5 138.5q111 0 196.5 -32t147.5 -97q67 -72 94.5 -199t27.5 -446q0 -279 -14.5 -398.5t-48.5 -193.5q-48 -104 -154 -159.5t-258 -55.5q-203 0 -314.5 104t-111.5 296l328 -1
q2 -72 28 -108.5t76 -36.5q63 0 89 55.5t26 194.5q0 42 -0.5 65.5t-1.5 42.5zM653 1032q0 139 -27.5 196.5t-93.5 57.5q-58 0 -82 -56.5t-24 -203.5q0 -141 26 -198.5t89 -57.5t87.5 53t24.5 209z" />
    <glyph glyph-name="colon" unicode=":" horiz-adv-x="598" 
d="M121 788v353h354v-353h-354zM121 0v352h354v-352h-354z" />
    <glyph glyph-name="semicolon" unicode=";" horiz-adv-x="598" 
d="M123 788v353h352v-353h-352zM123 0v352h352v-278q0 -201 -81 -292.5t-269 -103.5v125q92 8 140 58t48 139h-190z" />
    <glyph glyph-name="less" unicode="&#x3c;" horiz-adv-x="1706" 
d="M1442 938l-801 -328l801 -327v-299l-1178 487v281l1178 487v-301z" />
    <glyph glyph-name="equal" unicode="=" horiz-adv-x="1706" 
d="M1452 512v-272h-1198v272h1198zM1452 983v-272h-1198v272h1198z" />
    <glyph glyph-name="greater" unicode="&#x3e;" horiz-adv-x="1706" 
d="M1442 752v-281l-1178 -487v299l801 327l-801 328v301z" />
    <glyph glyph-name="question" unicode="?" horiz-adv-x="1010" 
d="M659 350v-350h-350v350h350zM371 1075h-316v10q0 224 121 342.5t348 118.5q200 0 316 -99.5t116 -268.5q0 -91 -40 -181.5t-150 -230.5l-13 -16q-116 -150 -116 -248v-17l-305 1q-3 17 -4.5 35t-1.5 36q0 81 32 156t134 203l6 7q108 133 108 226q0 66 -30 102.5t-84 36.5
q-57 0 -90 -47.5t-33 -130.5q0 -6 1 -17.5t1 -17.5z" />
    <glyph glyph-name="at" unicode="@" horiz-adv-x="2048" 
d="M1241 911l49 82h242l-156 -627q-2 -12 -3 -18.5t-1 -11.5q0 -24 12.5 -36.5t34.5 -12.5q128 0 231 142t103 331q0 236 -174.5 381t-462.5 145q-142 0 -266 -35.5t-225 -105.5q-154 -108 -238 -269t-84 -350q0 -294 199.5 -468.5t535.5 -174.5q160 0 307.5 47t278.5 140
l115 -160q-164 -122 -342 -181t-381 -59q-188 0 -355 54.5t-294 156.5q-149 119 -223 279t-74 360q0 176 55.5 332.5t163.5 284.5q149 177 361.5 271.5t461.5 94.5q386 0 626 -206t240 -533q0 -171 -68 -314.5t-196 -242.5q-70 -55 -153.5 -84t-174.5 -29q-109 0 -166.5 38
t-66.5 115q-59 -79 -127.5 -115t-161.5 -36q-171 0 -257.5 88t-86.5 262q0 247 143.5 411.5t356.5 164.5q74 0 130.5 -28t90.5 -83zM1126 494l47 195q-7 67 -42 104.5t-91 37.5q-95 0 -167 -116.5t-72 -274.5q0 -72 30.5 -111.5t86.5 -39.5q72 0 129 55.5t79 149.5z" />
    <glyph glyph-name="A" unicode="A" horiz-adv-x="1126" 
d="M459 573h207l-103 672zM14 0l336 1540h428l332 -1540h-360l-45 295h-283l-45 -295h-363z" />
    <glyph glyph-name="B" unicode="B" horiz-adv-x="1188" 
d="M485 938h23q106 0 156.5 44.5t50.5 137.5q0 81 -50 124.5t-143 43.5q-15 0 -23 -0.5t-13 -1.5zM485 272h31q113 0 170 53t57 158q0 98 -56 143.5t-177 45.5h-25v-400zM125 0v1540h387q176 0 252.5 -14t132.5 -47q83 -50 125.5 -132t42.5 -194q0 -100 -39.5 -178
t-126.5 -152q103 -52 155 -141.5t52 -214.5q0 -103 -35 -195t-98 -157q-60 -63 -148 -89t-272 -26h-428z" />
    <glyph glyph-name="C" unicode="C" horiz-adv-x="1221" 
d="M756 596h354q1 -14 1.5 -30t0.5 -48q0 -282 -123.5 -418.5t-378.5 -136.5q-150 0 -257 50t-173 151q-46 72 -66 200t-20 406t20 406t66 200q65 100 171 150.5t253 50.5q253 0 379.5 -140.5t126.5 -420.5v-15l-350 1q-2 157 -36 220.5t-114 63.5q-87 0 -119 -77.5
t-32 -409.5v-29q0 -357 32 -437.5t119 -80.5q81 0 113.5 58.5t32.5 217.5v68z" />
    <glyph glyph-name="D" unicode="D" horiz-adv-x="1194" 
d="M487 1253v-972q11 -2 21 -2h31q58 0 96.5 16t62.5 51q20 28 27.5 108t7.5 314v70q0 192 -7 259.5t-26 92.5q-21 33 -61.5 49t-103.5 16q-19 0 -29.5 -0.5t-18.5 -1.5zM125 0v1540h397q218 0 323 -37.5t167 -128.5q48 -71 68 -183.5t20 -420.5t-20 -420t-68 -184
q-62 -91 -167 -128.5t-323 -37.5h-397z" />
    <glyph glyph-name="E" unicode="E" horiz-adv-x="1061" 
d="M125 0v1540h838v-299h-480v-283h443v-309h-443v-336h480v-313h-838z" />
    <glyph glyph-name="F" unicode="F" horiz-adv-x="1051" 
d="M125 0v1540h840v-299h-478v-280h443v-310h-443v-651h-362z" />
    <glyph glyph-name="G" unicode="G" horiz-adv-x="1180" 
d="M1071 844v-844h-248l-16 96q-54 -62 -119.5 -92.5t-148.5 -30.5q-94 0 -173.5 35t-138.5 101q-73 81 -103 218t-30 464q0 233 21 373t65 210q64 101 169.5 152t250.5 51q227 0 342 -123.5t115 -368.5q0 -9 -1 -27.5t-1 -29.5h-342v19q0 133 -28.5 190t-92.5 57
q-76 0 -104.5 -70t-28.5 -327v-152v-106q0 -257 27 -324t100 -67t106 59t33 191q0 30 -0.5 46t-1.5 31h-141v269h489z" />
    <glyph glyph-name="H" unicode="H" horiz-adv-x="1251" 
d="M125 0v1540h360v-582h289v582h352v-1540h-352v639h-289v-639h-360z" />
    <glyph glyph-name="I" unicode="I" horiz-adv-x="610" 
d="M125 0v1540h360v-1540h-360z" />
    <glyph glyph-name="J" unicode="J" horiz-adv-x="995" 
d="M21 518h331q0 -194 17.5 -237t64.5 -43q40 0 56 27.5t16 117.5v1157h360v-1014q0 -172 -12 -255.5t-41 -137.5q-46 -84 -136 -127t-222 -43q-235 0 -336 110t-101 367q0 32 0.5 48t2.5 30z" />
    <glyph glyph-name="K" unicode="K" horiz-adv-x="1106" 
d="M125 0v1540h360v-639l269 639h368l-334 -674l342 -866h-378l-189 557l-78 -147v-410h-360z" />
    <glyph glyph-name="L" unicode="L" horiz-adv-x="952" 
d="M918 0h-793v1540h360v-1229h433v-311z" />
    <glyph glyph-name="M" unicode="M" horiz-adv-x="1634" 
d="M125 0v1540h504l137 -655q1 -5 16.5 -123.5l32.5 -237.5l32.5 220.5t22.5 145.5l136 650h499v-1540h-340l31 1190l-244 -1190h-274l-244 1190l31 -1190h-340z" />
    <glyph glyph-name="N" unicode="N" horiz-adv-x="1212" 
d="M125 0v1540h375l299 -950q-18 240 -26.5 414t-8.5 294v242h321v-1540h-376l-301 979q20 -191 30.5 -370.5t10.5 -348.5v-260h-324z" />
    <glyph glyph-name="O" unicode="O" horiz-adv-x="1221" 
d="M758 631v278q0 256 -32.5 316.5t-117.5 60.5q-83 0 -115 -62t-32 -315v-278q0 -250 32 -313.5t117 -63.5q84 0 116 62t32 315zM94 770q0 278 20 406t66 200q66 102 173 151.5t257 49.5q151 0 256.5 -49.5t171.5 -151.5q48 -73 68 -201t20 -405q0 -276 -20 -404.5
t-68 -201.5q-65 -101 -171.5 -151t-256.5 -50t-257 50t-173 151q-46 72 -66 200t-20 406z" />
    <glyph glyph-name="P" unicode="P" horiz-adv-x="1167" 
d="M487 877q8 -1 18.5 -2t29.5 -1q108 0 156 50.5t48 162.5q0 93 -51 134t-170 41h-31v-385zM125 0v1540h354q196 0 289.5 -17t157.5 -57q85 -52 129.5 -154.5t44.5 -244.5q0 -234 -123.5 -355.5t-362.5 -121.5h-127v-590h-362z" />
    <glyph glyph-name="Q" unicode="Q" horiz-adv-x="1221" 
d="M756 631v278q0 256 -32.5 316.5t-117.5 60.5q-83 0 -115 -62t-32 -315v-278q0 -250 32 -313.5t117 -63.5q84 0 116 62t32 315zM681 -35q-27 -3 -53.5 -4.5t-52.5 -1.5q-112 0 -198 33t-146 98q-76 82 -107.5 212.5t-31.5 467.5q0 279 19.5 407.5t66.5 198.5
q66 101 172 150t258 49t257.5 -49t170.5 -150q48 -73 69 -209.5t21 -396.5q0 -344 -37.5 -482.5t-130.5 -211.5l127 -137l-206 -191z" />
    <glyph glyph-name="R" unicode="R" horiz-adv-x="1200" 
d="M481 899q9 0 23.5 -1t21.5 -1q112 0 158.5 45t46.5 152q0 99 -46.5 140.5t-158.5 41.5q-7 0 -21.5 -1t-23.5 -1v-375zM125 0v1540h405q199 0 289 -18.5t146 -63.5q66 -54 98.5 -133t32.5 -188q0 -133 -46.5 -223t-144.5 -148q167 -74 176 -351v-5q1 -29 2 -84
q4 -260 86 -326h-421q-14 48 -20.5 100.5t-6.5 112.5q0 37 2 89.5t2 68.5q0 141 -37 193t-133 52h-74v-616h-356z" />
    <glyph glyph-name="S" unicode="S" horiz-adv-x="1075" 
d="M78 522h330v-45q0 -127 30 -179t101 -52q57 0 90 39.5t33 107.5q0 112 -161 215l-40 27l-17 11q-217 146 -270 220q-38 56 -58 126t-20 153q0 202 117 317t322 115q223 0 340.5 -113t117.5 -327q0 -9 -1 -25t-1 -25h-323v19q0 101 -31.5 153t-91.5 52q-51 0 -82 -36.5
t-31 -96.5q0 -98 176 -208l49 -32q14 -8 39 -25q189 -120 242 -202q33 -53 50.5 -120.5t17.5 -146.5q0 -231 -120 -356t-343 -125q-234 0 -351.5 119.5t-117.5 355.5q0 15 0.5 31.5t3.5 52.5z" />
    <glyph glyph-name="T" unicode="T" horiz-adv-x="999" 
d="M313 0v1241h-288v299h952v-299h-303v-1241h-361z" />
    <glyph glyph-name="U" unicode="U" horiz-adv-x="1221" 
d="M125 1540h364v-965q0 -219 27.5 -271t97.5 -52q71 0 98 54t27 269v965h357v-983q0 -167 -14.5 -249.5t-47.5 -143.5q-55 -104 -159 -152.5t-271 -48.5q-154 0 -251 45.5t-154 145.5q-41 71 -57.5 182t-16.5 375v829z" />
    <glyph glyph-name="V" unicode="V" horiz-adv-x="1147" 
d="M360 0l-344 1540h381l133 -809q9 -54 20.5 -142.5t22.5 -191.5l3 19q27 241 38 313l136 811h380l-350 -1540h-420z" />
    <glyph glyph-name="W" unicode="W" horiz-adv-x="1657" 
d="M340 0l-307 1540h362l82 -749q14 -123 22 -206t13 -148q7 96 16.5 185t22.5 171l115 747h362l111 -746q7 -45 25 -208q11 -95 18 -150q11 139 18.5 218t13.5 132l82 754h363l-305 -1540h-389l-84 637q-11 84 -19.5 176.5t-15.5 191.5q-8 -114 -16.5 -203t-18.5 -167
l-80 -635h-391z" />
    <glyph glyph-name="X" unicode="X" horiz-adv-x="1087" 
d="M14 0l330 758l-307 782h375l143 -457l141 457h383l-315 -782l323 -758h-387l-145 444l-156 -444h-385z" />
    <glyph glyph-name="Y" unicode="Y" horiz-adv-x="1051" 
d="M340 0v653l-354 887h387l149 -487l150 487h391l-354 -887v-653h-369z" />
    <glyph glyph-name="Z" unicode="Z" 
d="M66 0v287l471 958h-433v295h832v-268l-473 -957h495v-315h-892z" />
    <glyph glyph-name="bracketleft" unicode="[" horiz-adv-x="688" 
d="M631 -387h-457v1927h457v-209h-166v-1509h166v-209z" />
    <glyph glyph-name="backslash" unicode="\" horiz-adv-x="555" 
d="M416 -190l-488 1767h170l488 -1767h-170z" />
    <glyph glyph-name="bracketright" unicode="]" horiz-adv-x="688" 
d="M47 -387v209h166v1509h-166v209h457v-1927h-457z" />
    <glyph glyph-name="asciicircum" unicode="^" horiz-adv-x="2048" 
d="M1192 1462l442 -565h-303l-307 309l-309 -309h-303l442 565h338z" />
    <glyph glyph-name="underscore" unicode="_" 
d="M1024 -201v-282h-1024v282h1024z" />
    <glyph glyph-name="grave" unicode="`" 
d="M674 1280h-144l-350 285h295z" />
    <glyph glyph-name="a" unicode="a" horiz-adv-x="1069" 
d="M627 557q-125 -35 -182.5 -87t-57.5 -130q0 -55 28.5 -88t76.5 -33q71 0 103 48t32 161v129zM668 0l-19 106q-61 -64 -133.5 -96.5t-157.5 -32.5q-136 0 -215.5 88t-79.5 238q0 131 67.5 216t221.5 147l100 37q181 66 181 149q0 51 -26 77.5t-75 26.5q-59 0 -87.5 -35.5
t-28.5 -109.5v-8h-324q0 196 109 291.5t331 95.5q100 0 178.5 -18.5t131.5 -53.5q68 -46 95.5 -111t27.5 -237v-35v-411q0 -136 9.5 -207.5t31.5 -116.5h-338z" />
    <glyph glyph-name="b" unicode="b" horiz-adv-x="1051" 
d="M532 909q-57 0 -80.5 -55.5t-23.5 -202.5q0 -286 24.5 -353t88.5 -67q54 0 75 51t21 234v31q0 245 -22 303.5t-83 58.5zM111 1540h323v-489q44 68 99.5 100.5t128.5 32.5q171 0 237 -123.5t66 -515.5q0 -182 -10 -278t-31 -142q-36 -78 -100 -118t-154 -40q-82 0 -148 41
t-112 119v-127h-299v1540z" />
    <glyph glyph-name="c" unicode="c" horiz-adv-x="1012" 
d="M604 455h318q0 -9 1 -23.5t1 -21.5q0 -222 -103 -331.5t-313 -109.5q-237 0 -333.5 134.5t-96.5 474.5t97 475t333 135q212 0 312 -108.5t100 -338.5v-20h-312v33q0 104 -22.5 148t-75.5 44q-61 0 -82.5 -59t-21.5 -309q0 -240 21.5 -305.5t80.5 -65.5q51 0 74.5 46.5
t23.5 147.5q0 8 -1 26t-1 28z" />
    <glyph glyph-name="d" unicode="d" horiz-adv-x="1051" 
d="M520 909q-61 0 -83.5 -63t-22.5 -279q0 -225 21 -280.5t77 -55.5q64 0 88.5 67t24.5 353q0 147 -23.5 202.5t-81.5 55.5zM940 1540v-1540h-297v127q-46 -78 -112.5 -119t-147.5 -41q-68 0 -123.5 24.5t-93.5 69.5q-43 54 -60.5 144.5t-17.5 339.5q0 392 66 515.5
t237 123.5q73 0 128 -32.5t99 -100.5v489h322z" />
    <glyph glyph-name="e" unicode="e" horiz-adv-x="1020" 
d="M625 406h303v-29q0 -203 -106 -305.5t-316 -102.5q-106 0 -192 30t-134 83q-54 61 -77 162t-23 323q0 245 23.5 342t80.5 160q55 59 139.5 89t196.5 30q114 0 197 -32.5t135 -96.5q44 -54 63 -129t19 -256v-139h-526q-1 -5 -1 -13q-4 -73 -4 -102q0 -122 26 -169.5
t89 -47.5q55 0 83 36.5t28 110.5q0 15 -3 46q-1 6 -1 10zM416 735h217v6q4 44 4 62q0 85 -27.5 125.5t-85.5 40.5q-59 0 -84.5 -39.5t-25.5 -130.5q0 -25 0.5 -39t1.5 -25z" />
    <glyph glyph-name="f" unicode="f" horiz-adv-x="672" 
d="M164 0v911h-131v246h131q0 11 -1 30t-1 27q0 182 77.5 257t264.5 75q28 0 58.5 -1.5t63.5 -4.5v-233q-7 1 -15 1.5t-23 0.5q-56 0 -79.5 -26t-23.5 -87q0 -15 0.5 -23t2.5 -16h139v-246h-140v-911h-323z" />
    <glyph glyph-name="g" unicode="g" horiz-adv-x="1042" 
d="M403 731v-84q0 -227 21.5 -288.5t77.5 -61.5q57 0 79.5 54.5t22.5 230.5v47q0 188 -21.5 237t-78.5 49q-52 0 -76.5 -43.5t-24.5 -140.5zM928 1157v-1036q0 -159 -17 -235.5t-57 -129.5q-56 -72 -149.5 -108.5t-225.5 -36.5q-203 0 -302 83t-99 255h319q0 -65 23.5 -95
t73.5 -30q62 0 86 39.5t24 154.5v136q-64 -58 -121.5 -84.5t-117.5 -26.5q-84 0 -149 45.5t-101 130.5q-19 45 -28 129.5t-9 218.5q0 129 6.5 230t17.5 164q19 97 91.5 160t166.5 63q77 0 143.5 -38t129.5 -118v129h295z" />
    <glyph glyph-name="h" unicode="h" horiz-adv-x="1034" 
d="M102 0v1540h322v-506q41 73 105.5 109.5t154.5 36.5q134 0 196 -89.5t62 -283.5v-807h-321v715q0 139 -18 173t-64 34q-54 0 -84.5 -52.5t-30.5 -146.5v-723h-322z" />
    <glyph glyph-name="i" unicode="i" horiz-adv-x="541" 
d="M109 1272v280h321v-280h-321zM109 0v1157h321v-1157h-321z" />
    <glyph glyph-name="j" unicode="j" horiz-adv-x="541" 
d="M430 92v-53q0 -174 -17 -244t-59 -112q-35 -35 -91.5 -52.5t-135.5 -17.5q-32 0 -62 2t-59 6v240q4 0 11 -1t10 -1q46 0 64 31t18 165v1102h321v-1065zM109 1272v280h321v-280h-321z" />
    <glyph glyph-name="k" unicode="k" horiz-adv-x="1010" 
d="M109 0v1540h317v-762l254 379h324l-338 -442l344 -715h-324l-207 471l-53 -74v-397h-317z" />
    <glyph glyph-name="l" unicode="l" horiz-adv-x="541" 
d="M430 0h-321v1540h321v-1540z" />
    <glyph glyph-name="m" unicode="m" horiz-adv-x="1499" 
d="M109 0v1157h286v-137q52 83 116 121.5t151 38.5q79 0 136.5 -41t88.5 -119q52 82 117.5 121t150.5 39q129 0 188.5 -89t59.5 -284v-807h-309v733q0 124 -17.5 156.5t-60.5 32.5q-52 0 -81.5 -53t-29.5 -146v-723h-303v733q0 124 -17 156.5t-61 32.5q-51 0 -80.5 -53
t-29.5 -146v-723h-305z" />
    <glyph glyph-name="n" unicode="n" horiz-adv-x="1059" 
d="M111 0v1157h303v-137q53 82 121 121t159 39q134 0 196 -89.5t62 -283.5v-807h-321v715q0 139 -18 173t-64 34q-54 0 -84.5 -52.5t-30.5 -146.5v-723h-323z" />
    <glyph glyph-name="o" unicode="o" horiz-adv-x="1018" 
d="M406 578q0 -244 21.5 -305.5t80.5 -61.5t80.5 59t21.5 308t-21.5 308.5t-80.5 59.5t-80.5 -62t-21.5 -306zM78 578q0 338 97 474t333 136t333 -135t97 -475q0 -338 -97 -473.5t-333 -135.5q-237 0 -333.5 134.5t-96.5 474.5z" />
    <glyph glyph-name="p" unicode="p" horiz-adv-x="1049" 
d="M537 242q63 0 86.5 72t23.5 333q0 157 -23 215t-79 58q-64 0 -88.5 -67t-24.5 -353q0 -147 23.5 -202.5t81.5 -55.5zM117 -389v1546h297v-131q45 78 111.5 118t148.5 40q68 0 124 -24t93 -68q43 -54 60.5 -144.5t17.5 -339.5q0 -395 -65.5 -518t-235.5 -123
q-73 0 -129 33.5t-101 101.5v-491h-321z" />
    <glyph glyph-name="q" unicode="q" horiz-adv-x="1051" 
d="M510 242q58 0 81 55.5t23 202.5q0 286 -24 353t-88 67q-54 0 -75 -51t-21 -207v-60q0 -239 22 -299.5t82 -60.5zM932 -389h-324v491q-44 -69 -99.5 -102t-127.5 -33q-171 0 -237 124.5t-66 516.5q0 182 9.5 277t31.5 141q35 78 99 118t155 40q82 0 148 -40t112 -118v131
h299v-1546z" />
    <glyph glyph-name="r" unicode="r" horiz-adv-x="709" 
d="M102 0v1157h297v-162q53 87 116.5 132t143.5 53v-367q-27 6 -51.5 9t-44.5 3q-78 0 -108.5 -55t-30.5 -215v-555h-322z" />
    <glyph glyph-name="s" unicode="s" horiz-adv-x="899" 
d="M39 367l289 -1q5 -90 35 -131.5t90 -41.5q48 0 79 28.5t31 73.5q0 39 -21.5 64.5t-95.5 60.5l-50 24q-175 81 -244 152q-49 48 -75 112t-26 134q0 158 107.5 252t290.5 94q190 0 292.5 -90.5t102.5 -259.5v-21l-283 1q-2 87 -26.5 124t-79.5 37q-49 0 -78 -26.5
t-29 -69.5q0 -76 145 -140l31 -14q198 -89 265 -173t67 -220q0 -175 -108 -271t-308 -96q-190 0 -295.5 97t-105.5 272v29z" />
    <glyph glyph-name="t" unicode="t" horiz-adv-x="676" 
d="M629 4q-59 -11 -103 -16.5t-75 -5.5q-96 0 -163.5 31t-99.5 89q-21 40 -29.5 100.5t-8.5 184.5v143v388h-125v239h125v320h325v-320h154v-239h-154v-472q0 -151 22 -186t85 -35q11 0 36 3q7 1 11 1v-225z" />
    <glyph glyph-name="u" unicode="u" horiz-adv-x="1059" 
d="M944 1157v-1157h-303v137q-54 -83 -121 -121.5t-158 -38.5q-134 0 -197 90t-63 283v807h324v-715q0 -139 18 -172.5t64 -33.5q54 0 84.5 52t30.5 146v723h321z" />
    <glyph glyph-name="v" unicode="v" horiz-adv-x="897" 
d="M266 0l-254 1157h324l113 -786l112 786h322l-256 -1157h-361z" />
    <glyph glyph-name="w" unicode="w" horiz-adv-x="1350" 
d="M242 0l-224 1157h314l90 -805l123 805h270l121 -805l92 805h313l-225 -1157h-336l-102 637l-100 -637h-336z" />
    <glyph glyph-name="x" unicode="x" horiz-adv-x="874" 
d="M10 0l262 578l-247 579h317l98 -315l99 315h319l-248 -575l260 -582h-327l-103 326l-102 -326h-328z" />
    <glyph glyph-name="y" unicode="y" horiz-adv-x="899" 
d="M16 1157h320l113 -745l114 745h320l-230 -1063q-66 -306 -148 -394.5t-261 -88.5q-26 0 -58.5 3t-74.5 9v242q2 0 6 -1q34 -3 49 -3q55 0 81.5 20.5t26.5 63.5q0 27 -20 119q-7 32 -10 49z" />
    <glyph glyph-name="z" unicode="z" horiz-adv-x="813" 
d="M37 0v229l393 662h-367v266h713v-244l-389 -653h389v-260h-739z" />
    <glyph glyph-name="braceleft" unicode="{" 
d="M905 1192q-8 0 -22.5 1t-20.5 1q-87 0 -117 -30t-30 -128v-239q0 -134 -47 -189.5t-170 -77.5q124 -23 170.5 -77.5t46.5 -186.5v-241q0 -96 29.5 -126t115.5 -30q7 0 22 1t23 1v-285h-80q-139 0 -211.5 10.5t-119.5 34.5q-60 30 -84.5 84.5t-24.5 186.5v258
q0 127 -46.5 179t-158.5 52q-5 0 -16.5 -1t-18.5 -1v283q7 0 18.5 -1t16.5 -1q112 0 158.5 52t46.5 179v258q0 133 24.5 188t84.5 85q48 24 120.5 34.5t210.5 10.5h80v-285z" />
    <glyph glyph-name="bar" unicode="|" 
d="M653 1565v-2048h-280v2048h280z" />
    <glyph glyph-name="braceright" unicode="}" 
d="M641 1159v-258q0 -127 46.5 -179t158.5 -52q5 0 16.5 1t18.5 1v-283q-7 0 -18.5 1t-16.5 1q-112 0 -158.5 -52t-46.5 -179v-258q0 -130 -25 -186t-86 -87q-45 -23 -115 -33t-200 -10h-94v283q9 0 23 -1t20 -1q87 0 117 30t30 128v241q0 132 46.5 186.5t170.5 77.5
q-123 22 -170 77t-47 188v241q0 98 -30 128t-117 30q-6 0 -20 -1t-23 -1v285h80q138 0 210 -10.5t119 -34.5q61 -31 86 -87t25 -186z" />
    <glyph glyph-name="asciitilde" unicode="~" horiz-adv-x="1706" 
d="M1530 543q-102 -69 -192 -101t-179 -32q-54 0 -111.5 11.5t-154.5 45.5q-124 42 -194.5 56t-137.5 14q-84 0 -176 -38t-207 -120v299q119 75 216.5 109t191.5 34q58 0 123 -12t155 -41q22 -7 64 -22q152 -54 235 -54q86 0 175 36.5t192 113.5v-299z" />
    <glyph glyph-name="Adieresis" unicode="&#xc4;" horiz-adv-x="1126" 
d="M459 573h207l-103 672zM14 0l336 1540h428l332 -1540h-360l-45 295h-283l-45 -295h-363zM618 1679v262h244v-262h-244zM264 1679v262h244v-262h-244z" />
    <glyph glyph-name="Aring" unicode="&#xc5;" horiz-adv-x="1126" 
d="M481 1772q0 -32 25 -56t57 -24q33 0 55.5 23t22.5 57q0 33 -22 55t-56 22t-58 -22.5t-24 -54.5zM362 1772q0 82 59 141t142 59t141 -58.5t58 -141.5q0 -84 -58 -142.5t-141 -58.5t-142 59t-59 142zM459 573h207l-103 672zM14 0l332 1518h432l332 -1518h-360l-45 295h-283
l-45 -295h-363z" />
    <glyph glyph-name="Ccedilla" unicode="&#xc7;" horiz-adv-x="1221" 
d="M756 596h354q1 -14 1.5 -30t0.5 -48q0 -282 -123.5 -418.5t-378.5 -136.5q-150 0 -257 50t-173 151q-46 72 -66 200t-20 406t20 406t66 200q65 100 171 150.5t253 50.5q253 0 379.5 -140.5t126.5 -420.5v-15l-350 1q-2 157 -36 220.5t-114 63.5q-87 0 -119 -77.5
t-32 -409.5v-29q0 -357 32 -437.5t119 -80.5q81 0 113.5 58.5t32.5 217.5v68zM354 -436v131q72 -16 133.5 -24.5t98.5 -8.5q43 0 62.5 16.5t19.5 53.5q0 31 -27.5 46t-85.5 15q-5 0 -17.5 -1t-19.5 -1v209h113v-82q106 0 164.5 -49t58.5 -139q0 -97 -64.5 -151t-181.5 -54
q-69 0 -135 10t-119 29z" />
    <glyph glyph-name="Eacute" unicode="&#xc9;" horiz-adv-x="1061" 
d="M125 0v1540h838v-299h-480v-283h443v-309h-443v-336h480v-313h-838zM383 1669l199 285h295l-350 -285h-144z" />
    <glyph glyph-name="Ntilde" unicode="&#xd1;" horiz-adv-x="1212" 
d="M125 0v1540h375l299 -950q-18 240 -26.5 414t-8.5 294v242h321v-1540h-376l-301 979q20 -191 30.5 -370.5t10.5 -348.5v-260h-324zM404 1682l-101 -1q23 117 74 174.5t131 57.5q19 0 36 -2t34 -6l128 -33q13 -3 25.5 -4.5t26.5 -1.5q34 0 56.5 19.5t31.5 55.5h101
q-20 -113 -75.5 -175t-137.5 -62q-16 0 -31 2t-29 6l-137 35q-10 3 -20.5 4.5t-20.5 1.5q-37 0 -60 -18t-32 -53z" />
    <glyph glyph-name="Odieresis" unicode="&#xd6;" horiz-adv-x="1221" 
d="M758 631v278q0 256 -32.5 316.5t-117.5 60.5q-83 0 -115 -62t-32 -315v-278q0 -250 32 -313.5t117 -63.5q84 0 116 62t32 315zM94 770q0 278 20 406t66 200q66 102 173 151.5t257 49.5q151 0 256.5 -49.5t171.5 -151.5q48 -73 68 -201t20 -405q0 -276 -20 -404.5
t-68 -201.5q-65 -101 -171.5 -151t-256.5 -50t-257 50t-173 151q-46 72 -66 200t-20 406zM665 1679v262h244v-262h-244zM311 1679v262h244v-262h-244z" />
    <glyph glyph-name="Udieresis" unicode="&#xdc;" horiz-adv-x="1221" 
d="M125 1540h364v-965q0 -219 27.5 -271t97.5 -52q71 0 98 54t27 269v965h357v-983q0 -167 -14.5 -249.5t-47.5 -143.5q-55 -104 -159 -152.5t-271 -48.5q-154 0 -251 45.5t-154 145.5q-41 71 -57.5 182t-16.5 375v829zM669 1679v262h244v-262h-244zM315 1679v262h244v-262
h-244z" />
    <glyph glyph-name="aacute" unicode="&#xe1;" horiz-adv-x="1069" 
d="M627 557q-125 -35 -182.5 -87t-57.5 -130q0 -55 28.5 -88t76.5 -33q71 0 103 48t32 161v129zM668 0l-19 106q-61 -64 -133.5 -96.5t-157.5 -32.5q-136 0 -215.5 88t-79.5 238q0 131 67.5 216t221.5 147l100 37q181 66 181 149q0 51 -26 77.5t-75 26.5q-59 0 -87.5 -35.5
t-28.5 -109.5v-8h-324q0 196 109 291.5t331 95.5q100 0 178.5 -18.5t131.5 -53.5q68 -46 95.5 -111t27.5 -237v-35v-411q0 -136 9.5 -207.5t31.5 -116.5h-338zM399 1280l199 285h295l-350 -285h-144z" />
    <glyph glyph-name="agrave" unicode="&#xe0;" horiz-adv-x="1069" 
d="M627 557q-125 -35 -182.5 -87t-57.5 -130q0 -55 28.5 -88t76.5 -33q71 0 103 48t32 161v129zM668 0l-19 106q-61 -64 -133.5 -96.5t-157.5 -32.5q-136 0 -215.5 88t-79.5 238q0 131 67.5 216t221.5 147l100 37q181 66 181 149q0 51 -26 77.5t-75 26.5q-59 0 -87.5 -35.5
t-28.5 -109.5v-8h-324q0 196 109 291.5t331 95.5q100 0 178.5 -18.5t131.5 -53.5q68 -46 95.5 -111t27.5 -237v-35v-411q0 -136 9.5 -207.5t31.5 -116.5h-338zM723 1280h-144l-350 285h295z" />
    <glyph glyph-name="acircumflex" unicode="&#xe2;" horiz-adv-x="1069" 
d="M627 557q-125 -35 -182.5 -87t-57.5 -130q0 -55 28.5 -88t76.5 -33q71 0 103 48t32 161v129zM668 0l-19 106q-61 -64 -133.5 -96.5t-157.5 -32.5q-136 0 -215.5 88t-79.5 238q0 131 67.5 216t221.5 147l100 37q181 66 181 149q0 51 -26 77.5t-75 26.5q-59 0 -87.5 -35.5
t-28.5 -109.5v-8h-324q0 196 109 291.5t331 95.5q100 0 178.5 -18.5t131.5 -53.5q68 -46 95.5 -111t27.5 -237v-35v-411q0 -136 9.5 -207.5t31.5 -116.5h-338zM244 1280l198 285h238l198 -285h-143l-174 150l-174 -150h-143z" />
    <glyph glyph-name="adieresis" unicode="&#xe4;" horiz-adv-x="1069" 
d="M627 557q-125 -35 -182.5 -87t-57.5 -130q0 -55 28.5 -88t76.5 -33q71 0 103 48t32 161v129zM668 0l-19 106q-61 -64 -133.5 -96.5t-157.5 -32.5q-136 0 -215.5 88t-79.5 238q0 131 67.5 216t221.5 147l100 37q181 66 181 149q0 51 -26 77.5t-75 26.5q-59 0 -87.5 -35.5
t-28.5 -109.5v-8h-324q0 196 109 291.5t331 95.5q100 0 178.5 -18.5t131.5 -53.5q68 -46 95.5 -111t27.5 -237v-35v-411q0 -136 9.5 -207.5t31.5 -116.5h-338zM616 1290v262h244v-262h-244zM262 1290v262h244v-262h-244z" />
    <glyph glyph-name="atilde" unicode="&#xe3;" horiz-adv-x="1069" 
d="M627 557q-125 -35 -182.5 -87t-57.5 -130q0 -55 28.5 -88t76.5 -33q71 0 103 48t32 161v129zM668 0l-19 106q-61 -64 -133.5 -96.5t-157.5 -32.5q-136 0 -215.5 88t-79.5 238q0 131 67.5 216t221.5 147l100 37q181 66 181 149q0 51 -26 77.5t-75 26.5q-59 0 -87.5 -35.5
t-28.5 -109.5v-8h-324q0 196 109 291.5t331 95.5q100 0 178.5 -18.5t131.5 -53.5q68 -46 95.5 -111t27.5 -237v-35v-411q0 -136 9.5 -207.5t31.5 -116.5h-338zM340 1293l-101 -1q23 117 74 174.5t131 57.5q19 0 36 -2t34 -6l128 -33q13 -3 25.5 -4.5t26.5 -1.5
q34 0 56.5 19.5t31.5 55.5h101q-20 -113 -75.5 -175t-137.5 -62q-16 0 -31 2t-29 6l-137 35q-10 3 -20.5 4.5t-20.5 1.5q-37 0 -60 -18t-32 -53z" />
    <glyph glyph-name="aring" unicode="&#xe5;" horiz-adv-x="1069" 
d="M627 557q-125 -35 -182.5 -87t-57.5 -130q0 -55 28.5 -88t76.5 -33q71 0 103 48t32 161v129zM668 0l-19 106q-61 -64 -133.5 -96.5t-157.5 -32.5q-136 0 -215.5 88t-79.5 238q0 131 67.5 216t221.5 147l100 37q181 66 181 149q0 51 -26 77.5t-75 26.5q-59 0 -87.5 -35.5
t-28.5 -109.5v-8h-324q0 196 109 291.5t331 95.5q100 0 178.5 -18.5t131.5 -53.5q68 -46 95.5 -111t27.5 -237v-35v-411q0 -136 9.5 -207.5t31.5 -116.5h-338zM471 1446q0 -32 23.5 -55t56.5 -23t56.5 22.5t23.5 55.5q0 34 -23 57t-57 23q-33 0 -56.5 -23.5t-23.5 -56.5z
M352 1446q0 84 58.5 143.5t140.5 59.5t141.5 -60t59.5 -143t-59 -141t-142 -58t-141 58t-58 141z" />
    <glyph glyph-name="ccedilla" unicode="&#xe7;" horiz-adv-x="1012" 
d="M604 455h318q0 -9 1 -23.5t1 -21.5q0 -222 -103 -331.5t-313 -109.5q-237 0 -333.5 134.5t-96.5 474.5t97 475t333 135q212 0 312 -108.5t100 -338.5v-20h-312v33q0 104 -22.5 148t-75.5 44q-61 0 -82.5 -59t-21.5 -309q0 -240 21.5 -305.5t80.5 -65.5q51 0 74.5 46.5
t23.5 147.5q0 8 -1 26t-1 28zM254 -436v131q72 -16 133.5 -24.5t98.5 -8.5q43 0 62.5 16.5t19.5 53.5q0 31 -27.5 46t-85.5 15q-5 0 -17.5 -1t-19.5 -1v209h113v-82q106 0 164.5 -49t58.5 -139q0 -97 -64.5 -151t-181.5 -54q-69 0 -135 10t-119 29z" />
    <glyph glyph-name="eacute" unicode="&#xe9;" horiz-adv-x="1020" 
d="M625 406h303v-29q0 -203 -106 -305.5t-316 -102.5q-106 0 -192 30t-134 83q-54 61 -77 162t-23 323q0 245 23.5 342t80.5 160q55 59 139.5 89t196.5 30q114 0 197 -32.5t135 -96.5q44 -54 63 -129t19 -256v-139h-526q-1 -5 -1 -13q-4 -73 -4 -102q0 -122 26 -169.5
t89 -47.5q55 0 83 36.5t28 110.5q0 15 -3 46q-1 6 -1 10zM416 735h217v6q4 44 4 62q0 85 -27.5 125.5t-85.5 40.5q-59 0 -84.5 -39.5t-25.5 -130.5q0 -25 0.5 -39t1.5 -25zM360 1280l199 285h295l-350 -285h-144z" />
    <glyph glyph-name="egrave" unicode="&#xe8;" horiz-adv-x="1020" 
d="M625 406h303v-29q0 -203 -106 -305.5t-316 -102.5q-106 0 -192 30t-134 83q-54 61 -77 162t-23 323q0 245 23.5 342t80.5 160q55 59 139.5 89t196.5 30q114 0 197 -32.5t135 -96.5q44 -54 63 -129t19 -256v-139h-526q-1 -5 -1 -13q-4 -73 -4 -102q0 -122 26 -169.5
t89 -47.5q55 0 83 36.5t28 110.5q0 15 -3 46q-1 6 -1 10zM416 735h217v6q4 44 4 62q0 85 -27.5 125.5t-85.5 40.5q-59 0 -84.5 -39.5t-25.5 -130.5q0 -25 0.5 -39t1.5 -25zM684 1280h-144l-350 285h295z" />
    <glyph glyph-name="ecircumflex" unicode="&#xea;" horiz-adv-x="1020" 
d="M625 406h303v-29q0 -203 -106 -305.5t-316 -102.5q-106 0 -192 30t-134 83q-54 61 -77 162t-23 323q0 245 23.5 342t80.5 160q55 59 139.5 89t196.5 30q114 0 197 -32.5t135 -96.5q44 -54 63 -129t19 -256v-139h-526q-1 -5 -1 -13q-4 -73 -4 -102q0 -122 26 -169.5
t89 -47.5q55 0 83 36.5t28 110.5q0 15 -3 46q-1 6 -1 10zM416 735h217v6q4 44 4 62q0 85 -27.5 125.5t-85.5 40.5q-59 0 -84.5 -39.5t-25.5 -130.5q0 -25 0.5 -39t1.5 -25zM205 1280l198 285h238l198 -285h-143l-174 150l-174 -150h-143z" />
    <glyph glyph-name="edieresis" unicode="&#xeb;" horiz-adv-x="1020" 
d="M625 406h303v-29q0 -203 -106 -305.5t-316 -102.5q-106 0 -192 30t-134 83q-54 61 -77 162t-23 323q0 245 23.5 342t80.5 160q55 59 139.5 89t196.5 30q114 0 197 -32.5t135 -96.5q44 -54 63 -129t19 -256v-139h-526q-1 -5 -1 -13q-4 -73 -4 -102q0 -122 26 -169.5
t89 -47.5q55 0 83 36.5t28 110.5q0 15 -3 46q-1 6 -1 10zM416 735h217v6q4 44 4 62q0 85 -27.5 125.5t-85.5 40.5q-59 0 -84.5 -39.5t-25.5 -130.5q0 -25 0.5 -39t1.5 -25zM577 1290v262h244v-262h-244zM223 1290v262h244v-262h-244z" />
    <glyph glyph-name="iacute" unicode="&#xed;" horiz-adv-x="541" 
d="M109 0v1157h321v-1157h-321zM108 1280l199 285h295l-350 -285h-144z" />
    <glyph glyph-name="igrave" unicode="&#xec;" horiz-adv-x="541" 
d="M109 0v1157h321v-1157h-321zM432 1280h-144l-350 285h295z" />
    <glyph glyph-name="icircumflex" unicode="&#xee;" horiz-adv-x="541" 
d="M109 0v1157h321v-1157h-321zM-47 1280l198 285h238l198 -285h-143l-174 150l-174 -150h-143z" />
    <glyph glyph-name="idieresis" unicode="&#xef;" horiz-adv-x="541" 
d="M109 0v1157h321v-1157h-321zM325 1290v262h244v-262h-244zM-29 1290v262h244v-262h-244z" />
    <glyph glyph-name="ntilde" unicode="&#xf1;" horiz-adv-x="1059" 
d="M111 0v1157h303v-137q53 82 121 121t159 39q134 0 196 -89.5t62 -283.5v-807h-321v715q0 139 -18 173t-64 34q-54 0 -84.5 -52.5t-30.5 -146.5v-723h-323zM318 1293l-101 -1q23 117 74 174.5t131 57.5q19 0 36 -2t34 -6l128 -33q13 -3 25.5 -4.5t26.5 -1.5
q34 0 56.5 19.5t31.5 55.5h101q-20 -113 -75.5 -175t-137.5 -62q-16 0 -31 2t-29 6l-137 35q-10 3 -20.5 4.5t-20.5 1.5q-37 0 -60 -18t-32 -53z" />
    <glyph glyph-name="oacute" unicode="&#xf3;" horiz-adv-x="1018" 
d="M406 578q0 -244 21.5 -305.5t80.5 -61.5t80.5 59t21.5 308t-21.5 308.5t-80.5 59.5t-80.5 -62t-21.5 -306zM78 578q0 338 97 474t333 136t333 -135t97 -475q0 -338 -97 -473.5t-333 -135.5q-237 0 -333.5 134.5t-96.5 474.5zM352 1280l199 285h295l-350 -285h-144z" />
    <glyph glyph-name="ograve" unicode="&#xf2;" horiz-adv-x="1018" 
d="M406 578q0 -244 21.5 -305.5t80.5 -61.5t80.5 59t21.5 308t-21.5 308.5t-80.5 59.5t-80.5 -62t-21.5 -306zM78 578q0 338 97 474t333 136t333 -135t97 -475q0 -338 -97 -473.5t-333 -135.5q-237 0 -333.5 134.5t-96.5 474.5zM676 1280h-144l-350 285h295z" />
    <glyph glyph-name="ocircumflex" unicode="&#xf4;" horiz-adv-x="1018" 
d="M406 578q0 -244 21.5 -305.5t80.5 -61.5t80.5 59t21.5 308t-21.5 308.5t-80.5 59.5t-80.5 -62t-21.5 -306zM78 578q0 338 97 474t333 136t333 -135t97 -475q0 -338 -97 -473.5t-333 -135.5q-237 0 -333.5 134.5t-96.5 474.5zM197 1280l198 285h238l198 -285h-143
l-174 150l-174 -150h-143z" />
    <glyph glyph-name="odieresis" unicode="&#xf6;" horiz-adv-x="1018" 
d="M406 578q0 -244 21.5 -305.5t80.5 -61.5t80.5 59t21.5 308t-21.5 308.5t-80.5 59.5t-80.5 -62t-21.5 -306zM78 578q0 338 97 474t333 136t333 -135t97 -475q0 -338 -97 -473.5t-333 -135.5q-237 0 -333.5 134.5t-96.5 474.5zM569 1290v262h244v-262h-244zM215 1290v262
h244v-262h-244z" />
    <glyph glyph-name="otilde" unicode="&#xf5;" horiz-adv-x="1018" 
d="M406 578q0 -244 21.5 -305.5t80.5 -61.5t80.5 59t21.5 308t-21.5 308.5t-80.5 59.5t-80.5 -62t-21.5 -306zM78 578q0 338 97 474t333 136t333 -135t97 -475q0 -338 -97 -473.5t-333 -135.5q-237 0 -333.5 134.5t-96.5 474.5zM293 1293l-101 -1q23 117 74 174.5t131 57.5
q19 0 36 -2t34 -6l128 -33q13 -3 25.5 -4.5t26.5 -1.5q34 0 56.5 19.5t31.5 55.5h101q-20 -113 -75.5 -175t-137.5 -62q-16 0 -31 2t-29 6l-137 35q-10 3 -20.5 4.5t-20.5 1.5q-37 0 -60 -18t-32 -53z" />
    <glyph glyph-name="uacute" unicode="&#xfa;" horiz-adv-x="1059" 
d="M944 1157v-1157h-303v137q-54 -83 -121 -121.5t-158 -38.5q-134 0 -197 90t-63 283v807h324v-715q0 -139 18 -172.5t64 -33.5q54 0 84.5 52t30.5 146v723h321zM366 1280l199 285h295l-350 -285h-144z" />
    <glyph glyph-name="ugrave" unicode="&#xf9;" horiz-adv-x="1059" 
d="M944 1157v-1157h-303v137q-54 -83 -121 -121.5t-158 -38.5q-134 0 -197 90t-63 283v807h324v-715q0 -139 18 -172.5t64 -33.5q54 0 84.5 52t30.5 146v723h321zM690 1280h-144l-350 285h295z" />
    <glyph glyph-name="ucircumflex" unicode="&#xfb;" horiz-adv-x="1059" 
d="M944 1157v-1157h-303v137q-54 -83 -121 -121.5t-158 -38.5q-134 0 -197 90t-63 283v807h324v-715q0 -139 18 -172.5t64 -33.5q54 0 84.5 52t30.5 146v723h321zM211 1280l198 285h238l198 -285h-143l-174 150l-174 -150h-143z" />
    <glyph glyph-name="udieresis" unicode="&#xfc;" horiz-adv-x="1059" 
d="M944 1157v-1157h-303v137q-54 -83 -121 -121.5t-158 -38.5q-134 0 -197 90t-63 283v807h324v-715q0 -139 18 -172.5t64 -33.5q54 0 84.5 52t30.5 146v723h321zM583 1290v262h244v-262h-244zM229 1290v262h244v-262h-244z" />
    <glyph glyph-name="dagger" unicode="&#x2020;" 
d="M356 -338v1161h-286v248h286v469h308v-469h290v-248h-290v-1161h-308z" />
    <glyph glyph-name="degree" unicode="&#xb0;" horiz-adv-x="674" 
d="M489 1151q0 62 -45 107t-108 45q-62 0 -106 -44.5t-44 -107.5q0 -64 44 -109t108 -45q62 0 106.5 46t44.5 108zM338 1473q134 0 227.5 -94.5t93.5 -229.5q0 -132 -94.5 -227t-228.5 -95t-228 93.5t-94 228.5q0 134 95.5 229t228.5 95z" />
    <glyph glyph-name="cent" unicode="&#xa2;" horiz-adv-x="1098" 
d="M651 483h318v-47q0 -201 -79.5 -307t-244.5 -127v-276h-188v276q-181 26 -256.5 160.5t-75.5 443.5q0 303 77 441.5t255 162.5v244h188v-242q162 -21 242 -130t80 -310v-22h-312v32q0 105 -22.5 149t-75.5 44q-60 0 -82 -59.5t-22 -309.5q0 -246 21.5 -308t80.5 -62
q49 0 72.5 47.5t23.5 148.5v51z" />
    <glyph glyph-name="sterling" unicode="&#xa3;" horiz-adv-x="1098" 
d="M268 629h-184v178h121q-45 106 -66.5 185t-21.5 138q0 191 124.5 303.5t336.5 112.5q210 0 324 -114t114 -324q0 -22 -0.5 -32.5t-1.5 -20.5h-312v12q0 116 -29.5 167.5t-94.5 51.5q-62 0 -94.5 -41.5t-32.5 -120.5q0 -52 16 -132.5t47 -184.5h295v-178l-248 -1
q3 -17 3.5 -26t0.5 -18q0 -92 -57 -185.5t-172 -189.5q63 25 111.5 37t89.5 12q46 0 127.5 -21.5t117.5 -21.5q45 0 90 16t95 50l67 -238q-59 -42 -118.5 -62t-124.5 -20q-74 0 -197.5 34t-175.5 34q-50 0 -108.5 -16t-127.5 -48l-98 221q100 86 148.5 172t48.5 179
q0 23 -3.5 46t-9.5 46z" />
    <glyph glyph-name="section" unicode="&#xa7;" 
d="M627 426q29 27 44 54t15 50q0 59 -137 168l-10 9l-152 120q-31 -21 -46 -44.5t-15 -49.5q0 -28 26 -66t72 -75zM86 39h289q0 -74 32 -118t87 -44q45 0 76.5 33.5t31.5 81.5q0 70 -161 197l-4 3l-173 134q-117 91 -164 171.5t-47 184.5q0 90 38.5 171t117.5 155
q-41 53 -61.5 107t-20.5 110q0 155 113.5 254.5t291.5 99.5q173 0 275 -94.5t102 -253.5h-286v6q0 50 -27 79.5t-72 29.5q-43 0 -72.5 -28.5t-29.5 -68.5q0 -37 28 -74t103 -96l195 -151q117 -92 170 -176t53 -177q0 -85 -39.5 -159t-124.5 -150q53 -52 79.5 -113.5
t26.5 -134.5q0 -165 -118.5 -267.5t-313.5 -102.5q-191 0 -293 100.5t-102 290.5z" />
    <glyph glyph-name="bullet" unicode="&#x2022;" horiz-adv-x="1208" 
d="M307 762q0 123 87 209t210 86q122 0 208.5 -86.5t86.5 -208.5t-87.5 -209.5t-209.5 -87.5q-123 0 -209 87t-86 210z" />
    <glyph glyph-name="paragraph" unicode="&#xb6;" 
d="M1014 1337h-101v-1337h-202v1337h-140v-1337h-202v784q-163 8 -261 103t-98 243q0 157 106.5 253t282.5 96h615v-142z" />
    <glyph glyph-name="germandbls" unicode="&#xdf;" horiz-adv-x="1032" 
d="M109 0v1008q0 146 11.5 219t39.5 127q48 96 135.5 143t216.5 47q191 0 299.5 -102t108.5 -283q0 -88 -34 -158t-102 -122q88 -49 126 -143t38 -271q0 -251 -73 -369.5t-228 -118.5q-31 1 -65 5.5t-70 13.5v233h10q64 0 87.5 45.5t23.5 227.5v59q0 107 -23.5 149t-81.5 42
h-16v231q53 0 72.5 32t19.5 165q0 64 -22 98.5t-62 34.5q-53 0 -72.5 -41t-19.5 -197v-43v-1032h-319z" />
    <glyph glyph-name="registered" unicode="&#xae;" horiz-adv-x="1706" 
d="M823 1006h-39v-193h54q58 0 88 25t30 73q0 49 -32 72t-101 23zM862 1165q174 0 265.5 -61t91.5 -178q0 -78 -43 -135t-121 -84l178 -355h-279l-145 312h-25v-312h-256v813h334zM1452 743q0 120 -45 229t-129 193q-87 87 -194.5 131.5t-229.5 44.5q-123 0 -230 -43.5
t-190 -128.5q-86 -87 -132 -197t-46 -229t45.5 -227.5t130.5 -193.5q86 -86 194 -131.5t228 -45.5q119 0 228.5 46t197.5 133q85 83 128.5 189.5t43.5 229.5zM852 1493q155 0 292.5 -56t244.5 -163q104 -105 160.5 -243t56.5 -290q0 -154 -55.5 -288.5t-161.5 -237.5
q-111 -108 -250 -166.5t-287 -58.5q-149 0 -284 57t-244 166q-108 107 -165 243t-57 285q0 151 57.5 289t166.5 248q103 105 238 160t288 55z" />
    <glyph glyph-name="copyright" unicode="&#xa9;" horiz-adv-x="1706" 
d="M987 883q-3 63 -38 99t-93 36q-73 0 -114.5 -71.5t-41.5 -201.5q0 -131 41 -196.5t123 -65.5q60 0 92 36.5t35 106.5l248 1q-6 -149 -109 -237.5t-272 -88.5q-195 0 -306.5 116t-111.5 320q0 200 111 323.5t289 123.5q176 0 278.5 -79.5t110.5 -221.5h-242zM1452 743
q0 120 -45 229t-129 193q-87 87 -194.5 131.5t-229.5 44.5q-123 0 -230 -43.5t-190 -128.5q-86 -87 -132 -197t-46 -229t45.5 -227.5t130.5 -193.5q86 -86 194 -131.5t228 -45.5q119 0 228.5 46t197.5 133q85 83 128.5 189.5t43.5 229.5zM852 1493q155 0 292.5 -56
t244.5 -163q104 -105 160.5 -243t56.5 -290q0 -154 -55.5 -288.5t-161.5 -237.5q-111 -108 -250 -166.5t-287 -58.5q-149 0 -284 57t-244 166q-108 107 -165 243t-57 285q0 151 57.5 289t166.5 248q103 105 238 160t288 55z" />
    <glyph glyph-name="trademark" unicode="&#x2122;" horiz-adv-x="1706" 
d="M1044 1468l99 -266l98 266h256v-559h-182v367l-137 -367h-70l-137 367v-367h-183v559h256zM690 1468v-151h-162v-408h-202v408h-162v151h526z" />
    <glyph glyph-name="acute" unicode="&#xb4;" 
d="M350 1280l199 285h295l-350 -285h-144z" />
    <glyph glyph-name="dieresis" unicode="&#xa8;" 
d="M567 1290v262h244v-262h-244zM213 1290v262h244v-262h-244z" />
    <glyph glyph-name="notequal" unicode="&#x2260;" horiz-adv-x="1706" 
d="M1384 1116l-112 -139h180v-260h-358l-172 -211h530v-262h-704l-242 -299l-199 159l113 140h-166v262h340l170 211h-510v260h690l244 301z" />
    <glyph glyph-name="AE" unicode="&#xc6;" horiz-adv-x="1630" 
d="M725 627v606h-27l-172 -606h199zM-18 0l555 1540h995v-307h-455v-281h432v-309h-432v-336h463v-307h-815v346h-274l-97 -346h-372z" />
    <glyph glyph-name="Oslash" unicode="&#xd8;" horiz-adv-x="1221" 
d="M455 610l301 518q0 84 -38 129.5t-108 45.5q-88 0 -121.5 -73.5t-33.5 -346.5v-113v-160zM764 879l-295 -514q9 -59 47 -93t94 -34q88 0 121 75.5t33 393.5v26v146zM315 33l-114 -201l-183 96l150 260q-39 92 -56.5 205t-17.5 320q0 333 19.5 462t66.5 201
q65 101 175.5 153t256.5 52q83 0 159 -21.5t149 -64.5l100 170l180 -98l-139 -234q35 -88 50 -193t15 -296q0 -343 -19.5 -475t-68.5 -205q-64 -100 -172.5 -151.5t-255.5 -51.5q-77 0 -150.5 18t-144.5 54z" />
    <glyph glyph-name="infinity" unicode="&#x221e;" horiz-adv-x="1706" 
d="M975 561q40 -57 95 -86t124 -29q84 0 137 43t53 109q0 65 -48 109.5t-117 44.5q-66 0 -122.5 -44t-121.5 -147zM731 653q-41 58 -95 86.5t-124 28.5q-84 0 -136 -43t-52 -111q0 -64 47.5 -107.5t117.5 -43.5q67 0 123 44t119 146zM856 791q69 128 149 190.5t175 62.5
q143 0 244.5 -126t101.5 -312q0 -194 -90.5 -315t-233.5 -121q-88 0 -164 53t-188 201q-67 -129 -146.5 -191.5t-175.5 -62.5q-144 0 -245 126t-101 312q0 195 89.5 315.5t232.5 120.5q85 0 161 -53t191 -200z" />
    <glyph glyph-name="plusminus" unicode="&#xb1;" horiz-adv-x="1706" 
d="M1452 231v-272h-1198v272h1198zM993 1262v-310h459v-272h-459v-309h-280v309h-459v272h459v310h280z" />
    <glyph glyph-name="lessequal" unicode="&#x2264;" horiz-adv-x="1706" 
d="M1454 236v-271h-1200v271h1200zM1452 999l-704 -208l704 -209v-281l-1198 371v237l1198 373v-283z" />
    <glyph glyph-name="greaterequal" unicode="&#x2265;" horiz-adv-x="1706" 
d="M1454 236v-271h-1200v271h1200zM1452 909v-237l-1196 -371v281l705 209l-705 208v283z" />
    <glyph glyph-name="yen" unicode="&#xa5;" horiz-adv-x="1098" 
d="M377 0v602h-359v180h289l-57 142h-232v180h160l-160 414h379l150 -557l158 557h374l-161 -414h159v-180h-233l-53 -142h286v-180h-356v-602h-344z" />
    <glyph glyph-name="mu" unicode="&#xb5;" horiz-adv-x="1372" 
d="M602 1087l-84 -614l-3 -33.5t-1 -19.5q0 -68 31.5 -100.5t95.5 -32.5q79 0 124 52t60 161l84 587h418l-158 -1087h-368l18 131q-36 -68 -82.5 -101.5t-105.5 -33.5q-61 0 -105.5 31.5t-70.5 93.5l-72 -543h-412l209 1509h422z" />
    <glyph glyph-name="partialdiff" unicode="&#x2202;" horiz-adv-x="1139" 
d="M770 715q25 127 35 210t10 150q0 105 -26.5 159t-77.5 54q-32 0 -57 -21t-52 -71q-44 -80 -91.5 -119t-100.5 -39q-62 0 -103 37.5t-41 95.5q0 87 102.5 148t249.5 61q224 0 352 -162.5t128 -449.5q0 -348 -167.5 -569.5t-432.5 -221.5q-215 0 -338 115.5t-123 317.5
q0 204 126 340.5t308 136.5q96 0 172 -43.5t127 -128.5zM694 553q0 114 -34 172.5t-99 58.5q-90 0 -150.5 -140.5t-60.5 -354.5q0 -115 34 -172.5t101 -57.5q90 0 149.5 140t59.5 354z" />
    <glyph glyph-name="summation" unicode="&#x2211;" horiz-adv-x="1583" 
d="M80 1473h1368v-353h-778l559 -557l-541 -600h846v-356h-1475v200l664 738l-643 629v299z" />
    <glyph glyph-name="product" unicode="&#x220f;" horiz-adv-x="1688" 
d="M139 1473h1399v-1866h-473v1474h-453v-1474h-473v1866z" />
    <glyph glyph-name="pi" unicode="&#x3c0;" horiz-adv-x="1716" 
d="M1661 846h-180l-119 -846h-418l119 846h-227l-119 -846h-418l119 846h-29q-32 0 -57.5 -37t-32.5 -96h-258q36 216 127.5 295t312.5 79h1221z" />
    <glyph glyph-name="integral" unicode="&#x222b;" horiz-adv-x="1331" 
d="M379 -244q28 0 54 42t42 114q19 92 26 385q4 185 9 293q23 515 144 742t368 227q118 0 190 -58.5t72 -150.5q0 -69 -46 -112.5t-116 -43.5q-67 0 -101 40.5t-34 119.5q0 2 1 10.5t1 15.5q0 26 -8.5 38t-26.5 12q-103 0 -126 -661l-3 -88q-11 -334 -36 -484.5t-74 -266.5
q-65 -150 -166.5 -226.5t-237.5 -76.5q-118 0 -189 57t-71 152q0 72 45 114t121 42q62 0 96.5 -37.5t34.5 -104.5q0 -12 -1 -30t-1 -23q0 -20 8.5 -30.5t24.5 -10.5z" />
    <glyph glyph-name="ordfeminine" unicode="&#xaa;" horiz-adv-x="803" 
d="M471 1120q-94 -23 -137 -59.5t-43 -91.5q0 -39 21 -61.5t57 -22.5q54 0 78 33.5t24 111.5v90zM502 731l-15 74q-47 -46 -101 -68t-118 -22q-101 0 -161 62t-60 167q0 91 50.5 150.5t166.5 103.5q27 10 74 26q137 46 137 103q0 36 -19.5 55t-56.5 19q-44 0 -66 -25.5
t-22 -77.5v-6h-241q0 139 81 206t248 67q76 0 135 -13.5t97 -38.5q51 -31 71.5 -76t20.5 -167v-25v-287q0 -88 7 -140.5t24 -86.5h-252z" />
    <glyph glyph-name="ordmasculine" unicode="&#xba;" horiz-adv-x="764" 
d="M305 1135q0 -172 16 -214t60 -42q45 0 61.5 41.5t16.5 214.5t-16.5 215.5t-61.5 42.5q-44 0 -60 -42.5t-16 -215.5zM59 1135q0 238 73 333t249 95q178 0 251 -95t73 -333q0 -236 -73.5 -330t-250.5 -94q-178 0 -250 93.5t-72 330.5z" />
    <glyph glyph-name="Omega" unicode="&#x3a9;" horiz-adv-x="1706" 
d="M1671 350v-350h-661v403q67 81 101 176.5t34 202.5q0 165 -80 263t-213 98t-212 -98t-79 -263q0 -107 34 -202.5t101 -176.5v-403h-661v350h371q-144 82 -215.5 209.5t-71.5 300.5q0 291 201.5 471t531.5 180t532.5 -180.5t202.5 -470.5q0 -173 -71.5 -300.5
t-215.5 -209.5h371z" />
    <glyph glyph-name="ae" unicode="&#xe6;" horiz-adv-x="1546" 
d="M1464 537h-520q0 -6 -1 -18q-3 -92 -3 -134q0 -97 26.5 -138.5t86.5 -41.5q54 0 81 37.5t27 113.5q0 21 -0.5 31.5t-1.5 19.5l299 1v-29q0 -201 -104.5 -307.5t-300.5 -106.5q-90 0 -167 28t-149 87q-86 -58 -170.5 -86.5t-169.5 -28.5q-154 0 -244 90t-90 246
q0 131 67.5 215.5t221.5 147.5l101 38q180 65 180 146q0 51 -26 77.5t-75 26.5q-58 0 -87 -36t-29 -109v-8h-324v6q0 189 108.5 285t323.5 96q85 0 152.5 -22t126.5 -68q70 46 139.5 68t142.5 22q94 0 171.5 -33t127.5 -94q44 -54 62 -128.5t18 -254.5v-139zM942 736l217 -1
q0 2 1 6q3 43 3 64q0 83 -27.5 123.5t-84.5 40.5q-59 0 -86 -39t-27 -125q0 -11 1 -25.5zM627 553q-126 -35 -183 -86.5t-57 -128.5q0 -56 28 -88.5t77 -32.5q72 0 103.5 46.5t31.5 160.5v129z" />
    <glyph glyph-name="oslash" unicode="&#xf8;" horiz-adv-x="1018" 
d="M1036 1186l-147 -215q29 -73 42 -169t13 -235q0 -323 -102 -462.5t-336 -139.5q-79 0 -141.5 17.5t-116.5 54.5l-127 -184l-144 90l158 233q-30 85 -44.5 184.5t-14.5 227.5q0 321 101 462.5t329 141.5q80 0 146 -18.5t124 -57.5l115 166zM622 626l-212 -331
q6 -50 33 -77.5t69 -27.5q61 0 87 70t26 244q0 48 -0.5 73t-2.5 49zM399 510l215 327q-9 66 -35 99t-69 33q-62 0 -87.5 -70.5t-25.5 -259.5q0 -18 1 -61t1 -68z" />
    <glyph glyph-name="questiondown" unicode="&#xbf;" horiz-adv-x="1010" 
d="M348 1190v350h352v-350h-352zM639 467h315v-10q0 -224 -121.5 -343.5t-349.5 -119.5q-198 0 -314 99.5t-116 268.5q0 91 40 181.5t151 230.5l5 7q122 157 122 259v17l307 -1q3 -18 4.5 -36t1.5 -35q0 -82 -33 -158.5t-133 -201.5l-6 -8q-109 -133 -109 -226
q0 -66 30.5 -102.5t84.5 -36.5q57 0 90 48t33 132q0 6 -1 17.5t-1 17.5z" />
    <glyph glyph-name="exclamdown" unicode="&#xa1;" horiz-adv-x="678" 
d="M250 1032h186l82 -622v-410h-358v410zM166 1540h352v-350h-352v350z" />
    <glyph glyph-name="logicalnot" unicode="&#xac;" horiz-adv-x="1706" 
d="M1452 868v-501h-272v235h-926v266h1198z" />
    <glyph glyph-name="radical" unicode="&#x221a;" horiz-adv-x="1395" 
d="M1399 1737v-172h-86l-588 -1606h-143l-301 827l-156 -59l-41 154l395 139l209 -600l483 1317h228z" />
    <glyph glyph-name="florin" unicode="&#x192;" horiz-adv-x="1098" 
d="M369 776h-213v225h250q41 294 139.5 421.5t279.5 127.5q36 0 80.5 -6.5t97.5 -19.5l-55 -258q-17 7 -33.5 10.5t-31.5 3.5q-62 0 -96.5 -65.5t-49.5 -213.5h203v-225h-240l-79 -508q-32 -203 -57 -299.5t-58 -167.5q-43 -91 -123.5 -142.5t-179.5 -51.5q-38 0 -83 9.5
t-95 29.5l36 268q23 -12 43 -18.5t37 -6.5q48 0 74 41.5t43 149.5z" />
    <glyph glyph-name="approxequal" unicode="&#x2248;" horiz-adv-x="1706" 
d="M1530 309q-106 -69 -195.5 -101t-177.5 -32q-87 0 -280 64.5t-316 64.5q-82 0 -172.5 -37t-210.5 -121v299q115 74 213 108t197 34q119 0 308.5 -64.5t268.5 -64.5q83 0 169 34.5t196 114.5v-299zM1530 774q-106 -70 -195 -101.5t-176 -31.5q-88 0 -281 64.5t-317 64.5
q-84 0 -173 -36t-210 -120v299q116 73 214 106.5t196 33.5q119 0 308.5 -63.5t268.5 -63.5q85 0 171.5 35t193.5 114v-301z" />
    <glyph glyph-name="Delta" unicode="&#x2206;" horiz-adv-x="1505" 
d="M958 309l-206 705l-207 -705h413zM991 1473l518 -1473h-1515l518 1473h479z" />
    <glyph glyph-name="guillemotleft" unicode="&#xab;" horiz-adv-x="1104" 
d="M485 707l-200 -125l200 -136v-256l-372 244v295l372 238v-260zM983 707l-203 -125l203 -136v-256l-375 244v295l375 238v-260z" />
    <glyph glyph-name="guillemotright" unicode="&#xbb;" horiz-adv-x="1104" 
d="M616 449l203 126l-203 136v256l375 -244v-295l-375 -238v259zM121 449l201 126l-201 136v256l373 -244v-295l-373 -238v259z" />
    <glyph glyph-name="ellipsis" unicode="&#x2026;" horiz-adv-x="2048" 
d="M164 0v352h355v-352h-355zM846 0v352h355v-352h-355zM1530 0v352h355v-352h-355z" />
    <glyph glyph-name="nonbreakingspace" unicode="&#xa0;" horiz-adv-x="1098" 
 />
    <glyph glyph-name="Agrave" unicode="&#xc0;" horiz-adv-x="1126" 
d="M459 573h207l-103 672zM14 0l336 1540h428l332 -1540h-360l-45 295h-283l-45 -295h-363zM725 1669h-144l-350 285h295z" />
    <glyph glyph-name="Atilde" unicode="&#xc3;" horiz-adv-x="1126" 
d="M459 573h207l-103 672zM14 0l336 1540h428l332 -1540h-360l-45 295h-283l-45 -295h-363zM342 1682l-101 -1q23 117 74 174.5t131 57.5q19 0 36 -2t34 -6l128 -33q13 -3 25.5 -4.5t26.5 -1.5q34 0 56.5 19.5t31.5 55.5h101q-20 -113 -75.5 -175t-137.5 -62q-16 0 -31 2
t-29 6l-137 35q-10 3 -20.5 4.5t-20.5 1.5q-37 0 -60 -18t-32 -53z" />
    <glyph glyph-name="Otilde" unicode="&#xd5;" horiz-adv-x="1221" 
d="M758 631v278q0 256 -32.5 316.5t-117.5 60.5q-83 0 -115 -62t-32 -315v-278q0 -250 32 -313.5t117 -63.5q84 0 116 62t32 315zM94 770q0 278 20 406t66 200q66 102 173 151.5t257 49.5q151 0 256.5 -49.5t171.5 -151.5q48 -73 68 -201t20 -405q0 -276 -20 -404.5
t-68 -201.5q-65 -101 -171.5 -151t-256.5 -50t-257 50t-173 151q-46 72 -66 200t-20 406zM389 1682l-101 -1q23 117 74 174.5t131 57.5q19 0 36 -2t34 -6l128 -33q13 -3 25.5 -4.5t26.5 -1.5q34 0 56.5 19.5t31.5 55.5h101q-20 -113 -75.5 -175t-137.5 -62q-16 0 -31 2
t-29 6l-137 35q-10 3 -20.5 4.5t-20.5 1.5q-37 0 -60 -18t-32 -53z" />
    <glyph glyph-name="OE" unicode="&#x152;" horiz-adv-x="1683" 
d="M741 1208q-22 39 -54 58.5t-73 19.5q-84 0 -118.5 -63t-34.5 -224q0 -49 -1 -183t-1 -220q0 -200 33.5 -272t117.5 -72q44 0 76 21.5t55 66.5v868zM852 72q-62 -56 -130.5 -82.5t-152.5 -26.5q-120 0 -223.5 53.5t-165.5 147.5q-46 72 -66 200t-20 406t20 406t66 200
q60 92 162 145.5t219 53.5q86 0 157 -26.5t134 -82.5v74h741v-299h-479v-283h440v-309h-440v-336h479v-313h-741v72z" />
    <glyph glyph-name="oe" unicode="&#x153;" horiz-adv-x="1546" 
d="M408 578q0 -244 21 -305.5t79 -61.5q60 0 82 59t22 308t-21.5 308.5t-80.5 59.5t-80.5 -62t-21.5 -306zM934 736l217 -1q0 4 1 11q3 41 3 61q0 82 -27 122t-84 40q-58 0 -85 -40.5t-27 -129.5q0 -25 0.5 -39t1.5 -24zM1458 537h-520v-11q-4 -82 -4 -123q0 -115 25 -156.5
t88 -41.5q54 0 81 37.5t27 111.5q0 21 -0.5 32.5t-1.5 20.5l299 1v-29q0 -205 -107.5 -307.5t-322.5 -102.5q-68 0 -131 17t-121 51q-54 -38 -117.5 -56t-140.5 -18q-234 0 -333 138t-99 477q0 331 98.5 474.5t321.5 143.5q72 0 140.5 -19t135.5 -59q67 36 138.5 53
t154.5 17q99 0 178 -33t129 -96q45 -55 63.5 -132t18.5 -251v-139z" />
    <glyph glyph-name="endash" unicode="&#x2013;" 
d="M0 461v233h1024v-233h-1024z" />
    <glyph glyph-name="emdash" unicode="&#x2014;" horiz-adv-x="2048" 
d="M0 461v233h2048v-233h-2048z" />
    <glyph glyph-name="quotedblleft" unicode="&#x201c;" horiz-adv-x="1044" 
d="M436 938h-313v295q0 155 77.5 240t235.5 102v-115q-85 -17 -124.5 -63.5t-41.5 -132.5h166v-326zM922 938h-314v295q0 155 78 240t236 102v-115q-86 -17 -125 -63t-41 -133h166v-326z" />
    <glyph glyph-name="quotedblright" unicode="&#x201d;" horiz-adv-x="1044" 
d="M608 1540h314v-293q0 -156 -78.5 -241.5t-235.5 -102.5v115q86 17 125 63t41 133h-166v326zM123 1540h313v-293q0 -156 -78 -241.5t-235 -102.5v115q85 17 124.5 63.5t41.5 132.5h-166v326z" />
    <glyph glyph-name="quoteleft" unicode="&#x2018;" horiz-adv-x="559" 
d="M436 938h-313v295q0 156 78 241.5t235 102.5v-117q-86 -17 -125 -63t-40 -131h165v-328z" />
    <glyph glyph-name="quoteright" unicode="&#x2019;" horiz-adv-x="559" 
d="M123 1540h313v-293q0 -156 -78 -241.5t-235 -102.5v115q85 17 124.5 63.5t41.5 132.5h-166v326z" />
    <glyph glyph-name="divide" unicode="&#xf7;" horiz-adv-x="1706" 
d="M854 371q74 0 128 -54t54 -129q0 -74 -54 -128t-130 -54t-129 53t-53 129q0 77 53.5 130t130.5 53zM1452 748v-273h-1198v273h1198zM854 1217q74 0 128 -55t54 -130q0 -74 -54 -128t-130 -54t-129 53t-53 129q0 77 54 131t130 54z" />
    <glyph glyph-name="lozenge" unicode="&#x25ca;" horiz-adv-x="1012" 
d="M506 1409l-385 -821l385 -821l385 821zM506 1653l500 -1065l-500 -1065l-500 1065z" />
    <glyph glyph-name="ydieresis" unicode="&#xff;" horiz-adv-x="899" 
d="M16 1157h320l113 -745l114 745h320l-230 -1063q-66 -306 -148 -394.5t-261 -88.5q-26 0 -58.5 3t-74.5 9v242q2 0 6 -1q34 -3 49 -3q55 0 81.5 20.5t26.5 63.5q0 27 -20 119q-7 32 -10 49zM506 1290v262h244v-262h-244zM152 1290v262h244v-262h-244z" />
    <glyph glyph-name="Ydieresis" unicode="&#x178;" horiz-adv-x="1051" 
d="M340 0v653l-354 887h387l149 -487l150 487h391l-354 -887v-653h-369zM581 1679v262h244v-262h-244zM227 1679v262h244v-262h-244z" />
    <glyph glyph-name="fraction" unicode="&#x2215;" horiz-adv-x="342" 
d="M-172 -31h-170l854 1581h170z" />
    <glyph glyph-name="currency" unicode="&#xa4;" horiz-adv-x="1098" 
d="M1102 477v-4q-18 -279 -113 -375q-59 -61 -152 -95t-196 -34q-133 0 -235 50t-162 145q-56 94 -67 405q-1 13 -1 19h-178l49 139h127v121h-168l49 137h123q1 50 5 98.5t10 90.5q17 130 68.5 206.5t148.5 122.5q51 24 109.5 35.5t121.5 11.5q114 0 210 -38.5t153 -108.5
q40 -49 62 -114.5t32 -174.5h-342q-8 95 -34.5 129.5t-78.5 34.5q-35 0 -59.5 -18t-36.5 -52q-11 -26 -17 -81.5t-7 -141.5h392l-49 -137h-346v-121h303l-49 -139l-254 -1q2 -117 8 -181.5t17 -92.5q13 -35 37.5 -52t62.5 -17q34 0 57 17t37 52q8 22 12.5 56.5t8.5 107.5
h342z" />
    <glyph glyph-name="guilsinglleft" unicode="&#x2039;" horiz-adv-x="606" 
d="M485 707l-200 -125l200 -136v-256l-372 244v295l372 238v-260z" />
    <glyph glyph-name="guilsinglright" unicode="&#x203a;" horiz-adv-x="606" 
d="M121 707v260l373 -238v-295l-373 -244v256l201 136z" />
    <glyph glyph-name="fi" unicode="&#xf001;" horiz-adv-x="1139" 
d="M164 0v911h-131v246h131q0 11 -1 30t-1 27q0 182 77.5 257t264.5 75q28 0 58.5 -1.5t63.5 -4.5v-233q-7 1 -15 1.5t-23 0.5q-56 0 -79.5 -26t-23.5 -87q0 -15 0.5 -23t2.5 -16h139v-246h-140v-911h-323zM709 1272v280h321v-280h-321zM709 0v1157h321v-1157h-321z" />
    <glyph glyph-name="fl" unicode="&#xf002;" horiz-adv-x="1139" 
d="M164 0v911h-131v246h131q0 11 -1 30t-1 27q0 182 77.5 257t264.5 75q28 0 58.5 -1.5t63.5 -4.5v-233q-7 1 -15 1.5t-23 0.5q-56 0 -79.5 -26t-23.5 -87q0 -15 0.5 -23t2.5 -16h139v-246h-140v-911h-323zM709 0v1540h321v-1540h-321z" />
    <glyph glyph-name="daggerdbl" unicode="&#x2021;" 
d="M360 -342v448h-290v254h290v488h-290v248h290v444h302v-444h292v-248h-292v-488h292v-254h-292v-448h-302z" />
    <glyph glyph-name="periodcentered" unicode="&#xb7;" horiz-adv-x="551" 
d="M90 762q0 78 53 131t131 53q79 0 133 -53t54 -131q0 -79 -54.5 -134t-132.5 -55t-131 54.5t-53 134.5z" />
    <glyph glyph-name="quotesinglbase" unicode="&#x201a;" horiz-adv-x="559" 
d="M123 352h313v-295q0 -156 -78 -241.5t-235 -102.5v117q87 17 125.5 62.5t40.5 131.5l-166 1v327z" />
    <glyph glyph-name="quotedblbase" unicode="&#x201e;" horiz-adv-x="1044" 
d="M608 352h314v-295q0 -156 -78.5 -241.5t-235.5 -102.5v117q87 17 125.5 62t40.5 132l-166 1v327zM123 352h313v-295q0 -156 -78 -241.5t-235 -102.5v117q87 17 125.5 62.5t40.5 131.5l-166 1v327z" />
    <glyph glyph-name="perthousand" unicode="&#x2030;" horiz-adv-x="2460" 
d="M1944 373q0 -118 20.5 -163.5t71.5 -45.5q50 0 71 45.5t21 163.5t-21 164.5t-71 46.5q-51 0 -71.5 -46.5t-20.5 -164.5zM1702 373q0 218 77 310.5t257 92.5q179 0 256.5 -92.5t77.5 -310.5t-77 -310t-257 -92t-257 92t-77 310zM1186 373q0 -118 20.5 -163.5t71.5 -45.5
t72.5 46.5t21.5 162.5t-21.5 163.5t-72.5 47.5t-71.5 -46.5t-20.5 -164.5zM944 373q0 218 77.5 310.5t256.5 92.5t256.5 -92.5t77.5 -310.5t-77 -310t-257 -92t-257 92t-77 310zM379 -29l739 1579h195l-738 -1579h-196zM322 1149q0 -118 20.5 -164.5t71.5 -46.5
q50 0 71 46.5t21 164.5q0 117 -21 163t-71 46q-51 0 -71.5 -46t-20.5 -163zM80 1149q0 217 77 309t257 92t257 -92t77 -309q0 -218 -77.5 -311t-256.5 -93q-180 0 -257 93t-77 311z" />
    <glyph glyph-name="Acircumflex" unicode="&#xc2;" horiz-adv-x="1126" 
d="M459 573h207l-103 672zM14 0l336 1540h428l332 -1540h-360l-45 295h-283l-45 -295h-363zM246 1669l198 285h238l198 -285h-143l-174 150l-174 -150h-143z" />
    <glyph glyph-name="Ecircumflex" unicode="&#xca;" horiz-adv-x="1061" 
d="M125 0v1540h838v-299h-480v-283h443v-309h-443v-336h480v-313h-838zM228 1669l198 285h238l198 -285h-143l-174 150l-174 -150h-143z" />
    <glyph glyph-name="Aacute" unicode="&#xc1;" horiz-adv-x="1126" 
d="M459 573h207l-103 672zM14 0l336 1540h428l332 -1540h-360l-45 295h-283l-45 -295h-363zM401 1669l199 285h295l-350 -285h-144z" />
    <glyph glyph-name="Edieresis" unicode="&#xcb;" horiz-adv-x="1061" 
d="M125 0v1540h838v-299h-480v-283h443v-309h-443v-336h480v-313h-838zM600 1679v262h244v-262h-244zM246 1679v262h244v-262h-244z" />
    <glyph glyph-name="Egrave" unicode="&#xc8;" horiz-adv-x="1061" 
d="M125 0v1540h838v-299h-480v-283h443v-309h-443v-336h480v-313h-838zM707 1669h-144l-350 285h295z" />
    <glyph glyph-name="Iacute" unicode="&#xcd;" horiz-adv-x="610" 
d="M125 0v1540h360v-1540h-360zM143 1669l199 285h295l-350 -285h-144z" />
    <glyph glyph-name="Icircumflex" unicode="&#xce;" horiz-adv-x="610" 
d="M125 0v1540h360v-1540h-360zM-12 1669l198 285h238l198 -285h-143l-174 150l-174 -150h-143z" />
    <glyph glyph-name="Idieresis" unicode="&#xcf;" horiz-adv-x="610" 
d="M125 0v1540h360v-1540h-360zM360 1679v262h244v-262h-244zM6 1679v262h244v-262h-244z" />
    <glyph glyph-name="Igrave" unicode="&#xcc;" horiz-adv-x="610" 
d="M125 0v1540h360v-1540h-360zM467 1669h-144l-350 285h295z" />
    <glyph glyph-name="Oacute" unicode="&#xd3;" horiz-adv-x="1221" 
d="M758 631v278q0 256 -32.5 316.5t-117.5 60.5q-83 0 -115 -62t-32 -315v-278q0 -250 32 -313.5t117 -63.5q84 0 116 62t32 315zM94 770q0 278 20 406t66 200q66 102 173 151.5t257 49.5q151 0 256.5 -49.5t171.5 -151.5q48 -73 68 -201t20 -405q0 -276 -20 -404.5
t-68 -201.5q-65 -101 -171.5 -151t-256.5 -50t-257 50t-173 151q-46 72 -66 200t-20 406zM448 1669l199 285h295l-350 -285h-144z" />
    <glyph glyph-name="Ocircumflex" unicode="&#xd4;" horiz-adv-x="1221" 
d="M758 631v278q0 256 -32.5 316.5t-117.5 60.5q-83 0 -115 -62t-32 -315v-278q0 -250 32 -313.5t117 -63.5q84 0 116 62t32 315zM94 770q0 278 20 406t66 200q66 102 173 151.5t257 49.5q151 0 256.5 -49.5t171.5 -151.5q48 -73 68 -201t20 -405q0 -276 -20 -404.5
t-68 -201.5q-65 -101 -171.5 -151t-256.5 -50t-257 50t-173 151q-46 72 -66 200t-20 406zM293 1669l198 285h238l198 -285h-143l-174 150l-174 -150h-143z" />
    <glyph glyph-name="apple" unicode="&#xf000;" horiz-adv-x="1618" 
d="M836 1216q-1 6 -1.5 14t-0.5 23q0 124 95 229.5t236 131.5q1 -10 1.5 -23t0.5 -39q0 -131 -103.5 -234.5t-203.5 -103.5h-8q-3 0 -7.5 1t-8.5 1zM1505 403q-114 -247 -205 -342.5t-204 -95.5q-50 0 -131.5 33t-122.5 33q-45 0 -131 -33t-127 -33q-64 0 -128.5 44
t-129.5 132q-102 140 -157.5 295.5t-55.5 300.5q0 219 125 356.5t323 137.5q68 0 155 -34t124 -34q34 0 121.5 34t152.5 34q111 0 199 -39.5t160 -122.5q-102 -65 -151.5 -145.5t-49.5 -182.5q0 -113 60 -200t173 -138z" />
    <glyph glyph-name="Ograve" unicode="&#xd2;" horiz-adv-x="1221" 
d="M758 631v278q0 256 -32.5 316.5t-117.5 60.5q-83 0 -115 -62t-32 -315v-278q0 -250 32 -313.5t117 -63.5q84 0 116 62t32 315zM94 770q0 278 20 406t66 200q66 102 173 151.5t257 49.5q151 0 256.5 -49.5t171.5 -151.5q48 -73 68 -201t20 -405q0 -276 -20 -404.5
t-68 -201.5q-65 -101 -171.5 -151t-256.5 -50t-257 50t-173 151q-46 72 -66 200t-20 406zM772 1669h-144l-350 285h295z" />
    <glyph glyph-name="Uacute" unicode="&#xda;" horiz-adv-x="1221" 
d="M125 1540h364v-965q0 -219 27.5 -271t97.5 -52q71 0 98 54t27 269v965h357v-983q0 -167 -14.5 -249.5t-47.5 -143.5q-55 -104 -159 -152.5t-271 -48.5q-154 0 -251 45.5t-154 145.5q-41 71 -57.5 182t-16.5 375v829zM452 1669l199 285h295l-350 -285h-144z" />
    <glyph glyph-name="Ucircumflex" unicode="&#xdb;" horiz-adv-x="1221" 
d="M125 1540h364v-965q0 -219 27.5 -271t97.5 -52q71 0 98 54t27 269v965h357v-983q0 -167 -14.5 -249.5t-47.5 -143.5q-55 -104 -159 -152.5t-271 -48.5q-154 0 -251 45.5t-154 145.5q-41 71 -57.5 182t-16.5 375v829zM297 1669l198 285h238l198 -285h-143l-174 150
l-174 -150h-143z" />
    <glyph glyph-name="Ugrave" unicode="&#xd9;" horiz-adv-x="1221" 
d="M125 1540h364v-965q0 -219 27.5 -271t97.5 -52q71 0 98 54t27 269v965h357v-983q0 -167 -14.5 -249.5t-47.5 -143.5q-55 -104 -159 -152.5t-271 -48.5q-154 0 -251 45.5t-154 145.5q-41 71 -57.5 182t-16.5 375v829zM776 1669h-144l-350 285h295z" />
    <glyph glyph-name="dotlessi" unicode="&#x131;" horiz-adv-x="541" 
d="M109 0v1157h321v-1157h-321z" />
    <glyph glyph-name="circumflex" unicode="&#x2c6;" 
d="M195 1280l198 285h238l198 -285h-143l-174 150l-174 -150h-143z" />
    <glyph glyph-name="tilde" unicode="&#x2dc;" 
d="M291 1293l-101 -1q23 117 74 174.5t131 57.5q19 0 36 -2t34 -6l128 -33q13 -3 25.5 -4.5t26.5 -1.5q34 0 56.5 19.5t31.5 55.5h101q-20 -113 -75.5 -175t-137.5 -62q-16 0 -31 2t-29 6l-137 35q-10 3 -20.5 4.5t-20.5 1.5q-37 0 -60 -18t-32 -53z" />
    <glyph glyph-name="macron" unicode="&#xaf;" 
d="M213 1341v162h598v-162h-598z" />
    <glyph glyph-name="breve" unicode="&#x2d8;" 
d="M197 1565h133q11 -64 54.5 -93.5t127.5 -29.5t128.5 30t53.5 92l133 1q-15 -148 -91 -216.5t-224 -68.5q-146 0 -223 69.5t-92 215.5z" />
    <glyph glyph-name="dotaccent" unicode="&#x2d9;" 
d="M387 1286v273h250v-273h-250z" />
    <glyph glyph-name="ring" unicode="&#x2da;" 
d="M426 1497q0 -35 25.5 -59.5t62.5 -24.5t61.5 24t24.5 60q0 38 -24.5 63t-61.5 25q-38 0 -63 -25t-25 -63zM285 1501q0 95 66 161.5t161 66.5t162 -67t67 -161q0 -96 -67 -163.5t-162 -67.5t-161 67t-66 164z" />
    <glyph glyph-name="cedilla" unicode="&#xb8;" 
d="M270 -436v131q72 -16 133.5 -24.5t98.5 -8.5q43 0 62.5 16.5t19.5 53.5q0 31 -27.5 46t-85.5 15q-5 0 -17.5 -1t-19.5 -1v209h113v-82q106 0 164.5 -49t58.5 -139q0 -97 -64.5 -151t-181.5 -54q-69 0 -135 10t-119 29z" />
    <glyph glyph-name="hungarumlaut" unicode="&#x2dd;" 
d="M573 1280l162 285h262l-313 -285h-111zM272 1280l129 285h250l-282 -285h-97z" />
    <glyph glyph-name="ogonek" unicode="&#x2db;" 
d="M631 0q-60 -54 -88.5 -101t-28.5 -94q0 -40 18 -59.5t56 -19.5h90v-187h-62q-154 0 -218 45t-64 148q0 73 46.5 139t143.5 129h107z" />
    <glyph glyph-name="caron" unicode="&#x2c7;" 
d="M195 1565h143l174 -150l174 150h143l-198 -285h-238z" />
    <glyph glyph-name="Lslash" unicode="&#x141;" horiz-adv-x="965" 
d="M928 0h-793v502l-135 -99v291l135 97v749h361v-534l217 151v-291l-217 -149v-406h432v-311z" />
    <glyph glyph-name="lslash" unicode="&#x142;" horiz-adv-x="578" 
d="M451 1004l127 90v-250l-127 -92v-752h-322v606l-129 -92v252l129 92v682h322v-536z" />
    <glyph glyph-name="Scaron" unicode="&#x160;" horiz-adv-x="1075" 
d="M78 522h330v-45q0 -127 30 -179t101 -52q57 0 90 39.5t33 107.5q0 112 -161 215l-40 27l-17 11q-217 146 -270 220q-38 56 -58 126t-20 153q0 202 117 317t322 115q223 0 340.5 -113t117.5 -327q0 -9 -1 -25t-1 -25h-323v19q0 101 -31.5 153t-91.5 52q-51 0 -82 -36.5
t-31 -96.5q0 -98 176 -208l49 -32q14 -8 39 -25q189 -120 242 -202q33 -53 50.5 -120.5t17.5 -146.5q0 -231 -120 -356t-343 -125q-234 0 -351.5 119.5t-117.5 355.5q0 15 0.5 31.5t3.5 52.5zM222 1954h143l174 -150l174 150h143l-198 -285h-238z" />
    <glyph glyph-name="scaron" unicode="&#x161;" horiz-adv-x="899" 
d="M39 367l289 -1q5 -90 35 -131.5t90 -41.5q48 0 79 28.5t31 73.5q0 39 -21.5 64.5t-95.5 60.5l-50 24q-175 81 -244 152q-49 48 -75 112t-26 134q0 158 107.5 252t290.5 94q190 0 292.5 -90.5t102.5 -259.5v-21l-283 1q-2 87 -26.5 124t-79.5 37q-49 0 -78 -26.5
t-29 -69.5q0 -76 145 -140l31 -14q198 -89 265 -173t67 -220q0 -175 -108 -271t-308 -96q-190 0 -295.5 97t-105.5 272v29zM134 1565h143l174 -150l174 150h143l-198 -285h-238z" />
    <glyph glyph-name="Zcaron" unicode="&#x17d;" 
d="M66 0v287l471 958h-433v295h832v-268l-473 -957h495v-315h-892zM195 1954h143l174 -150l174 150h143l-198 -285h-238z" />
    <glyph glyph-name="zcaron" unicode="&#x17e;" horiz-adv-x="813" 
d="M37 0v229l393 662h-367v266h713v-244l-389 -653h389v-260h-739zM91 1565h143l174 -150l174 150h143l-198 -285h-238z" />
    <glyph glyph-name="brokenbar" unicode="&#xa6;" 
d="M653 408v-758h-280v758h280zM653 1432v-758h-280v758h280z" />
    <glyph glyph-name="Eth" unicode="&#xd0;" horiz-adv-x="1227" 
d="M553 1540q218 0 323 -37.5t166 -128.5q49 -71 68.5 -183.5t19.5 -420.5t-19.5 -420t-68.5 -184q-61 -91 -166 -128.5t-323 -37.5h-416v674h-137v260h137v606h416zM489 674l1 -393q30 -3 44.5 -4t24.5 -1q68 0 113 17.5t71 52.5q21 27 29 100.5t8 321.5v113
q0 165 -7.5 224.5t-27.5 84.5q-24 34 -71.5 50.5t-116.5 16.5q-19 0 -61 -3q-4 0 -7 -1v-319h164v-260h-164z" />
    <glyph glyph-name="eth" unicode="&#xf0;" horiz-adv-x="1018" 
d="M508 903q-59 0 -80.5 -58t-21.5 -288q0 -229 21.5 -287.5t80.5 -58.5t80.5 58.5t21.5 287.5q0 230 -21.5 288t-80.5 58zM535 1112q-22 42 -49.5 83t-59.5 79l-215 -123l-49 82l203 117l-33.5 40.5t-59.5 61.5l154 141q36 -24 74.5 -54.5t77.5 -65.5l176 104l51 -82
l-160 -94q156 -170 224.5 -367.5t68.5 -490.5q0 -318 -97.5 -446t-332.5 -128q-233 0 -331.5 125t-98.5 426q0 340 84 468t299 128q18 0 61 -3q8 -1 13 -1z" />
    <glyph glyph-name="Yacute" unicode="&#xdd;" horiz-adv-x="1051" 
d="M340 0v653l-354 887h387l149 -487l150 487h391l-354 -887v-653h-369zM364 1669l199 285h295l-350 -285h-144z" />
    <glyph glyph-name="yacute" unicode="&#xfd;" horiz-adv-x="899" 
d="M16 1157h320l113 -745l114 745h320l-230 -1063q-66 -306 -148 -394.5t-261 -88.5q-26 0 -58.5 3t-74.5 9v242q2 0 6 -1q34 -3 49 -3q55 0 81.5 20.5t26.5 63.5q0 27 -20 119q-7 32 -10 49zM289 1280l199 285h295l-350 -285h-144z" />
    <glyph glyph-name="Thorn" unicode="&#xde;" horiz-adv-x="1167" 
d="M488 631q7 -1 17.5 -1.5t29.5 -0.5q107 0 155.5 50.5t48.5 162.5q0 92 -50.5 133t-164.5 41h-37zM125 0v1540h362v-246h72q288 0 414.5 -111t126.5 -362q0 -234 -123.5 -355.5t-362.5 -121.5h-127v-344h-362z" />
    <glyph glyph-name="thorn" unicode="&#xfe;" horiz-adv-x="1049" 
d="M537 242q64 0 87 71.5t23 333.5q0 158 -22.5 215.5t-79.5 57.5q-64 0 -88.5 -67t-24.5 -353q0 -147 23.5 -202.5t81.5 -55.5zM117 -389v1929h321v-510q45 77 106.5 115.5t141.5 38.5q62 0 114.5 -24.5t90.5 -69.5q43 -54 60.5 -144.5t17.5 -339.5q0 -394 -65.5 -516.5
t-235.5 -122.5q-73 0 -129 33.5t-101 101.5v-491h-321z" />
    <glyph glyph-name="minus" unicode="&#x2212;" horiz-adv-x="1706" 
d="M1452 750v-277h-1198v277h1198z" />
    <glyph glyph-name="multiply" unicode="&#xd7;" horiz-adv-x="1706" 
d="M874 805l426 426l195 -195l-426 -426l426 -426l-195 -194l-426 426l-425 -426l-195 194l426 426l-426 426l195 195z" />
    <glyph glyph-name="onesuperior" unicode="&#xb9;" horiz-adv-x="725" 
d="M289 608v637h-203v141h12q110 0 175.5 38t86.5 114h156v-930h-227z" />
    <glyph glyph-name="twosuperior" unicode="&#xb2;" horiz-adv-x="725" 
d="M47 608v15q0 52 13 103t40 105q57 110 173 218l24 22l7 7q128 121 128 214q0 43 -18 65.5t-54 22.5q-47 0 -69.5 -37.5t-22.5 -117.5v-17h-211v25q0 149 80.5 228t231.5 79q135 0 211.5 -68.5t76.5 -189.5q0 -71 -33 -135.5t-104 -130.5q-17 -17 -53 -48
q-119 -107 -150 -177h336v-183h-606z" />
    <glyph glyph-name="threesuperior" unicode="&#xb3;" horiz-adv-x="725" 
d="M57 913h213q2 -87 21 -124t61 -37q40 0 61 34t21 99q0 70 -37.5 100.5t-124.5 30.5h-32v143h20q85 0 121.5 30t36.5 99q0 45 -17 69.5t-49 24.5q-40 0 -57 -28t-19 -105h-208v13q0 129 78.5 202.5t218.5 73.5q125 0 203.5 -65t78.5 -168q0 -69 -35.5 -120.5t-107.5 -86.5
q85 -31 126.5 -85.5t41.5 -138.5q0 -134 -82.5 -209t-229.5 -75q-143 0 -223 78t-80 219v26z" />
    <glyph glyph-name="onequarter" unicode="&#xbc;" horiz-adv-x="1724" 
d="M1419 313v346l-178 -346h178zM1395 0v166h-320v164l305 522h222v-539h84v-147h-84v-166h-207zM520 -31h-170l854 1581h170zM276 668v596h-192v131h10q105 0 167.5 35t82.5 106h150v-868h-218z" />
    <glyph glyph-name="onehalf" unicode="&#xbd;" horiz-adv-x="1724" 
d="M1079 0v14q0 50 13 98t38 95q54 105 168 206q14 13 21 19l3 3q126 115 126 202q0 41 -18 62.5t-52 21.5q-46 0 -67 -34.5t-21 -111.5v-16h-203v23q0 138 77 212t220 74q130 0 203.5 -63.5t73.5 -175.5q0 -67 -31.5 -127.5t-97.5 -122.5q-15 -14 -46 -40
q-119 -102 -149 -169h322v-170h-580zM520 -31h-170l854 1581h170zM276 668v596h-192v131h10q105 0 167.5 35t82.5 106h150v-868h-218z" />
    <glyph glyph-name="threequarters" unicode="&#xbe;" horiz-adv-x="1724" 
d="M1419 313v346l-178 -346h178zM1395 0v166h-320v164l305 522h222v-539h84v-147h-84v-166h-207zM520 -31h-170l854 1581h170zM55 952h203q2 -81 20 -116t58 -35q38 0 58 32t20 93q0 65 -36 94t-118 29q-13 0 -19 -0.5t-11 -1.5l-1 135h21q79 0 114 28.5t35 92.5
q0 41 -16.5 64.5t-46.5 23.5q-38 0 -54 -27t-18 -98h-198v10q0 122 74.5 191t205.5 69q121 0 196.5 -61t75.5 -158q0 -64 -34.5 -111.5t-104.5 -81.5q83 -29 122.5 -79.5t39.5 -129.5q0 -125 -78 -194.5t-219 -69.5q-138 0 -214.5 73t-76.5 204q0 4 1 13t1 11z" />
    <glyph glyph-name="franc" unicode="&#x20a3;" horiz-adv-x="1759" 
d="M125 0v1540h840v-299h-478v-280h443v-310h-443v-651h-362zM1153 0v1157h297v-162q53 87 116.5 132t143.5 53v-367q-27 6 -51.5 9t-44.5 3q-78 0 -108.5 -55t-30.5 -215v-555h-322z" />
    <glyph glyph-name="Gbreve" unicode="&#x11e;" horiz-adv-x="1180" 
d="M1071 844v-844h-248l-16 96q-54 -62 -119.5 -92.5t-148.5 -30.5q-94 0 -173.5 35t-138.5 101q-73 81 -103 218t-30 464q0 233 21 373t65 210q64 101 169.5 152t250.5 51q227 0 342 -123.5t115 -368.5q0 -9 -1 -27.5t-1 -29.5h-342v19q0 133 -28.5 190t-92.5 57
q-76 0 -104.5 -70t-28.5 -327v-152v-106q0 -257 27 -324t100 -67t106 59t33 191q0 30 -0.5 46t-1.5 31h-141v269h489zM275 1954h133q11 -64 54.5 -93.5t127.5 -29.5t128.5 30t53.5 92l133 1q-15 -148 -91 -216.5t-224 -68.5q-146 0 -223 69.5t-92 215.5z" />
    <glyph glyph-name="gbreve" unicode="&#x11f;" horiz-adv-x="1042" 
d="M403 731v-84q0 -227 21.5 -288.5t77.5 -61.5q57 0 79.5 54.5t22.5 230.5v47q0 188 -21.5 237t-78.5 49q-52 0 -76.5 -43.5t-24.5 -140.5zM928 1157v-1036q0 -159 -17 -235.5t-57 -129.5q-56 -72 -149.5 -108.5t-225.5 -36.5q-203 0 -302 83t-99 255h319q0 -65 23.5 -95
t73.5 -30q62 0 86 39.5t24 154.5v136q-64 -58 -121.5 -84.5t-117.5 -26.5q-84 0 -149 45.5t-101 130.5q-19 45 -28 129.5t-9 218.5q0 129 6.5 230t17.5 164q19 97 91.5 160t166.5 63q77 0 143.5 -38t129.5 -118v129h295zM207 1565h133q11 -64 54.5 -93.5t127.5 -29.5
t128.5 30t53.5 92l133 1q-15 -148 -91 -216.5t-224 -68.5q-146 0 -223 69.5t-92 215.5z" />
    <glyph glyph-name="Idotaccent" unicode="&#x130;" horiz-adv-x="610" 
d="M125 0v1540h360v-1540h-360zM180 1675v273h250v-273h-250z" />
    <glyph glyph-name="Scedilla" unicode="&#x15e;" horiz-adv-x="1075" 
d="M78 522h330v-45q0 -127 30 -179t101 -52q57 0 90 39.5t33 107.5q0 112 -161 215l-40 27l-17 11q-217 146 -270 220q-38 56 -58 126t-20 153q0 202 117 317t322 115q223 0 340.5 -113t117.5 -327q0 -9 -1 -25t-1 -25h-323v19q0 101 -31.5 153t-91.5 52q-51 0 -82 -36.5
t-31 -96.5q0 -98 176 -208l49 -32q14 -8 39 -25q189 -120 242 -202q33 -53 50.5 -120.5t17.5 -146.5q0 -231 -120 -356t-343 -125q-234 0 -351.5 119.5t-117.5 355.5q0 15 0.5 31.5t3.5 52.5zM297 -436v131q72 -16 133.5 -24.5t98.5 -8.5q43 0 62.5 16.5t19.5 53.5
q0 31 -27.5 46t-85.5 15q-5 0 -17.5 -1t-19.5 -1v209h113v-82q106 0 164.5 -49t58.5 -139q0 -97 -64.5 -151t-181.5 -54q-69 0 -135 10t-119 29z" />
    <glyph glyph-name="scedilla" unicode="&#x15f;" horiz-adv-x="899" 
d="M39 367l289 -1q5 -90 35 -131.5t90 -41.5q48 0 79 28.5t31 73.5q0 39 -21.5 64.5t-95.5 60.5l-50 24q-175 81 -244 152q-49 48 -75 112t-26 134q0 158 107.5 252t290.5 94q190 0 292.5 -90.5t102.5 -259.5v-21l-283 1q-2 87 -26.5 124t-79.5 37q-49 0 -78 -26.5
t-29 -69.5q0 -76 145 -140l31 -14q198 -89 265 -173t67 -220q0 -175 -108 -271t-308 -96q-190 0 -295.5 97t-105.5 272v29zM209 -436v131q72 -16 133.5 -24.5t98.5 -8.5q43 0 62.5 16.5t19.5 53.5q0 31 -27.5 46t-85.5 15q-5 0 -17.5 -1t-19.5 -1v209h113v-82
q106 0 164.5 -49t58.5 -139q0 -97 -64.5 -151t-181.5 -54q-69 0 -135 10t-119 29z" />
    <glyph glyph-name="Cacute" unicode="&#x106;" horiz-adv-x="1221" 
d="M756 596h354q1 -14 1.5 -30t0.5 -48q0 -282 -123.5 -418.5t-378.5 -136.5q-150 0 -257 50t-173 151q-46 72 -66 200t-20 406t20 406t66 200q65 100 171 150.5t253 50.5q253 0 379.5 -140.5t126.5 -420.5v-15l-350 1q-2 157 -36 220.5t-114 63.5q-87 0 -119 -77.5
t-32 -409.5v-29q0 -357 32 -437.5t119 -80.5q81 0 113.5 58.5t32.5 217.5v68zM448 1669l199 285h295l-350 -285h-144z" />
    <glyph glyph-name="cacute" unicode="&#x107;" horiz-adv-x="1012" 
d="M604 455h318q0 -9 1 -23.5t1 -21.5q0 -222 -103 -331.5t-313 -109.5q-237 0 -333.5 134.5t-96.5 474.5t97 475t333 135q212 0 312 -108.5t100 -338.5v-20h-312v33q0 104 -22.5 148t-75.5 44q-61 0 -82.5 -59t-21.5 -309q0 -240 21.5 -305.5t80.5 -65.5q51 0 74.5 46.5
t23.5 147.5q0 8 -1 26t-1 28zM356 1280l199 285h295l-350 -285h-144z" />
    <glyph glyph-name="Ccaron" unicode="&#x10c;" horiz-adv-x="1221" 
d="M756 596h354q1 -14 1.5 -30t0.5 -48q0 -282 -123.5 -418.5t-378.5 -136.5q-150 0 -257 50t-173 151q-46 72 -66 200t-20 406t20 406t66 200q65 100 171 150.5t253 50.5q253 0 379.5 -140.5t126.5 -420.5v-15l-350 1q-2 157 -36 220.5t-114 63.5q-87 0 -119 -77.5
t-32 -409.5v-29q0 -357 32 -437.5t119 -80.5q81 0 113.5 58.5t32.5 217.5v68zM293 1954h143l174 -150l174 150h143l-198 -285h-238z" />
    <glyph glyph-name="ccaron" unicode="&#x10d;" horiz-adv-x="1012" 
d="M604 455h318q0 -9 1 -23.5t1 -21.5q0 -222 -103 -331.5t-313 -109.5q-237 0 -333.5 134.5t-96.5 474.5t97 475t333 135q212 0 312 -108.5t100 -338.5v-20h-312v33q0 104 -22.5 148t-75.5 44q-61 0 -82.5 -59t-21.5 -309q0 -240 21.5 -305.5t80.5 -65.5q51 0 74.5 46.5
t23.5 147.5q0 8 -1 26t-1 28zM201 1565h143l174 -150l174 150h143l-198 -285h-238z" />
    <glyph glyph-name="dcroat" unicode="&#x111;" horiz-adv-x="1061" 
d="M414 553q0 -215 21 -268.5t77 -53.5q64 0 88.5 65.5t24.5 328.5q0 149 -23.5 205.5t-81.5 56.5q-61 0 -83.5 -63t-22.5 -271zM940 1540v-113h150v-180h-150v-1247h-297v127q-45 -77 -112 -118.5t-148 -41.5q-80 0 -140.5 32t-97.5 93q-31 52 -44 142.5t-13 332.5
q0 352 67.5 473t235.5 121q72 0 126 -32t101 -103v221h-229v180h229v113h322z" />
    <glyph glyph-name="sfthyphen" unicode="&#xad;" horiz-adv-x="797" 
d="M86 424v309h625v-309h-625z" />
    <glyph glyph-name="periodcentered" unicode="&#x2219;" horiz-adv-x="551" 
d="M90 762q0 78 53 131t131 53q79 0 133 -53t54 -131q0 -79 -54.5 -134t-132.5 -55t-131 54.5t-53 134.5z" />
    <glyph glyph-name="Euro" horiz-adv-x="1098" 
d="M1102 477v-4q-18 -279 -113 -375q-59 -61 -152 -95t-196 -34q-133 0 -235 50t-162 145q-56 94 -67 405q-1 13 -1 19h-178l49 139h127v121h-168l49 137h123q1 50 5 98.5t10 90.5q17 130 68.5 206.5t148.5 122.5q51 24 109.5 35.5t121.5 11.5q114 0 210 -38.5t153 -108.5
q40 -49 62 -114.5t32 -174.5h-342q-8 95 -34.5 129.5t-78.5 34.5q-35 0 -59.5 -18t-36.5 -52q-11 -26 -17 -81.5t-7 -141.5h392l-49 -137h-346v-121h303l-49 -139l-254 -1q2 -117 8 -181.5t17 -92.5q13 -35 37.5 -52t62.5 -17q34 0 57 17t37 52q8 22 12.5 56.5t8.5 107.5
h342z" />
    <glyph glyph-name="Euro" unicode="&#x20ac;" horiz-adv-x="1098" 
d="M1102 477v-4q-18 -279 -113 -375q-59 -61 -152 -95t-196 -34q-133 0 -235 50t-162 145q-56 94 -67 405q-1 13 -1 19h-178l49 139h127v121h-168l49 137h123q1 50 5 98.5t10 90.5q17 130 68.5 206.5t148.5 122.5q51 24 109.5 35.5t121.5 11.5q114 0 210 -38.5t153 -108.5
q40 -49 62 -114.5t32 -174.5h-342q-8 95 -34.5 129.5t-78.5 34.5q-35 0 -59.5 -18t-36.5 -52q-11 -26 -17 -81.5t-7 -141.5h392l-49 -137h-346v-121h303l-49 -139l-254 -1q2 -117 8 -181.5t17 -92.5q13 -35 37.5 -52t62.5 -17q34 0 57 17t37 52q8 22 12.5 56.5t8.5 107.5
h342z" />
    </font>
</defs>
</svg>
